Всегда рабочее зеркало без VPN и Proxy просто перед .vidak.icu напиши любое слово или цифру, Пример http://0faw.vidak.icu

MVO

Лицензия

1 сезон

1

1 сезон

iTunes

1 сезон

13

1 сезон

Deluxe

pack

Рекомендуем

Пиратка

30

ВАЖНО

RePack

MK11

RePack

jed

RePack

fifa19

RePack

RDR2

RePack

NEED FOR SPEED™ PAYBACK

Кинопоиск HD

6 сезон

 Острые козырьки 6 сезон

Все сериалы

все сериалы на PB.wtf

RePack

FAR CRY 5
  
Magnet ссылка

Линкольн для адвоката / Сезон: 1 / Серии: 1-10 из 10 / The Lincoln Lawyer (Дэвид Гроссман, Алонсо Альварез, Билл Д`Элиа) [2022, Триллер, драма, криминал, детектив, WEB-DL 1080p] MVO [RuDub] pb.wtf

Линкольн для адвоката через торрент pb.wtf

Раздают: 2 [ 164 KB/s ] Качают: 1 [ 0 KB/s ]
Размер: 17.24 GB | Добавлен: 1 мес. 14 д. назад | Торрент скачан:70 раз
Смотреть онлайн Линкольн для адвоката | Скачать    Ребята, помогите собрать деньги на оплату серверов!!!

18-05-2022 04:51 Линкольн для адвоката Скачать торрент  

Линкольн для адвоката
The Lincoln Lawyer

Год выпуска: 2022
Страна: США
Выпущено: A+E Studios, Netflix
Жанр: Триллер, драма, криминал, детектив
Продолжительность: ~ 00:50:00
Перевод: Профессиональный (многоголосый) | RuDub
Субтитры: Русские (Full), английские (SDH), украинские, немецкие, французские, итальянские, испанские, голландские, португальские

Режиссер: Дэвид Гроссман, Алонсо Альварез, Билл Д`Элиа

rating

В ролях: Мануэль Рульфо, Нив Кэмпбелл, Кристофер Горам, Джаз Рэйкол, Нтаре Мвине, Майкл Грациадей, Ламонт Томпсон, Криста Уорнер, Регги Ли, Крисинг

Описание: Экранизация романа «Свинцовый вердикт» Майкла Коннели. Микки Холлер, успешный адвокат из Лос-Анджелеса, оказавшийся вне игры после аварии, берется за дело об убийстве, чтобы вернуться в строй.

Качество: WEB-DL 1080p
Формат: MKV

Видео: AVC, 1920x960 (2,000), ~ 3775 Kbps, 23.976 fps
Аудио 1: AC3, 48 kHz, 2 ch, 256 kbps - Rus (RuDub)
Аудио 2: AC3, 48 kHz, 6 ch, 640 kbps - Eng
скриншот  скриншот  скриншот  скриншот  скриншот  скриншот  

Общее
Уникальный идентификатор : 176909876390649216487918468644594549331 (0x85179A53B689A0A8AEF9DB6091A08253)
Полное имя : D:Линкольн для адвоката. Сериал. 2022. EniaHD (WEB-DLRip 1080p)\The.Lincoln.Lawyer.s01e01. Снова в деле.mkv
Формат : Matroska
Версия формата : Version 2
Размер файла : 1,58 Гбайт
Продолжительность : 47 м. 22 с.
Режим общего битрейта : Переменный
Общий поток : 4 766 Кбит/сек
Название фильма : The.Lincoln.Lawyer.S01E01.He Rides Again.WEB-DLRip 1080p.EniaHD@Atla22
Дата кодирования : UTC 2022-05-13 20:48:12
Программа кодирования : mkvmerge v6.9.1 ('Blue Panther') 32bit built on Apr 18 2014 18:15:44
Библиотека кодирования : libebml v1.3.0 + libmatroska v1.4.1
Обложка : Yes
Attachments : Cover_The.Lincoln.Lawyer.jpg

Видео
Идентификатор : 1
Формат : AVC
Формат/Информация : Advanced Video Codec
Профиль формата : High@L4
Настройки формата : CABAC / 4 Ref Frames
Параметр CABAC формата : Да
Параметр RefFrames формата : 4 кадра
Идентификатор кодека : V_MPEG4/ISO/AVC
Продолжительность : 47 м. 22 с.
Вид битрейта : Переменный
Битрейт : 3 775 Кбит/сек
Максимальный битрейт : 15,0 Мбит/сек
Ширина : 1 920 пикселей
Высота : 960 пикселей
Соотношение сторон : 2,000
Режим частоты кадров : Постоянный
Частота кадров : 23,976 (24000/1001) кадра/сек
Цветовое пространство : YUV
Субдискретизация насыщенности : 4:2:0
Битовая глубина : 8 бит
Тип развёртки : Прогрессивная
Бит/(Пиксели*Кадры) : 0.085
Размер потока : 1,25 Гбайт (79%)
Библиотека кодирования : x264 core 157 r2935 545de2f
Настройки программы : cabac=1 / ref=4 / deblock=1:-1:-1 / analyse=0x3:0x113 / me=umh / subme=9 / psy=1 / psy_rd=1.00:0.15 / mixed_ref=1 / me_range=24 / chroma_me=1 / trellis=2 / 8x8dct=1 / cqm=0 / deadzone=21,11 / fast_pskip=0 / chroma_qp_offset=-3 / threads=18 / lookahead_threads=3 / sliced_threads=0 / nr=0 / decimate=1 / interlaced=0 / bluray_compat=0 / constrained_intra=0 / bframes=8 / b_pyramid=2 / b_adapt=2 / b_bias=0 / direct=3 / weightb=1 / open_gop=0 / weightp=2 / keyint=120 / keyint_min=61 / scenecut=40 / intra_refresh=0 / rc_lookahead=120 / rc=crf / mbtree=1 / crf=18.0 / qcomp=0.60 / qpmin=0 / qpmax=69 / qpstep=4 / vbv_maxrate=15000 / vbv_bufsize=31250 / crf_max=0.0 / nal_hrd=vbr / filler=0 / ip_ratio=1.40 / aq=3:1.00
Язык : English
Default : Да
Forced : Нет
Цветовой диапазон : Limited
Основные цвета : BT.709
Характеристики трансфера : BT.709
Коэффициенты матрицы : BT.709

Аудио #1
Идентификатор : 2
Формат : AC-3
Формат/Информация : Audio Coding 3
Коммерческое название : Dolby Digital
Идентификатор кодека : A_AC3
Продолжительность : 47 м. 22 с.
Вид битрейта : Постоянный
Битрейт : 256 Кбит/сек
Каналы : 2 канала
Channel layout : L R
Частота : 48,0 КГц
Частота кадров : 31,250 кадров/сек (1536 SPF)
Метод сжатия : С потерями
Размер потока : 86,8 Мбайт (5%)
Заголовок : RuDub
Язык : Russian
Service kind : Complete Main
Default : Да
Forced : Нет

Аудио #2
Идентификатор : 3
Формат : AC-3
Формат/Информация : Audio Coding 3
Коммерческое название : Dolby Digital
Идентификатор кодека : A_AC3
Продолжительность : 47 м. 22 с.
Вид битрейта : Постоянный
Битрейт : 640 Кбит/сек
Каналы : 6 каналов
Channel layout : L R C LFE Ls Rs
Частота : 48,0 КГц
Частота кадров : 31,250 кадров/сек (1536 SPF)
Метод сжатия : С потерями
Размер потока : 217 Мбайт (13%)
Язык : English
Service kind : Complete Main
Default : Нет
Forced : Нет

Текст #1
Идентификатор : 4
Формат : UTF-8
Идентификатор кодека : S_TEXT/UTF8
Идентификатор кодека/Информация : UTF-8 Plain Text
Язык : Russian
Default : Нет
Forced : Нет

Текст #2
Идентификатор : 5
Формат : UTF-8
Идентификатор кодека : S_TEXT/UTF8
Идентификатор кодека/Информация : UTF-8 Plain Text
Заголовок : SDH
Язык : English
Default : Нет
Forced : Нет

Текст #3
Идентификатор : 6
Формат : UTF-8
Идентификатор кодека : S_TEXT/UTF8
Идентификатор кодека/Информация : UTF-8 Plain Text
Язык : Ukrainian
Default : Нет
Forced : Нет

Текст #4
Идентификатор : 7
Формат : UTF-8
Идентификатор кодека : S_TEXT/UTF8
Идентификатор кодека/Информация : UTF-8 Plain Text
Язык : German
Default : Нет
Forced : Нет

Текст #5
Идентификатор : 8
Формат : UTF-8
Идентификатор кодека : S_TEXT/UTF8
Идентификатор кодека/Информация : UTF-8 Plain Text
Язык : French
Default : Нет
Forced : Нет

Текст #6
Идентификатор : 9
Формат : UTF-8
Идентификатор кодека : S_TEXT/UTF8
Идентификатор кодека/Информация : UTF-8 Plain Text
Язык : Italian
Default : Нет
Forced : Нет

Текст #7
Идентификатор : 10
Формат : UTF-8
Идентификатор кодека : S_TEXT/UTF8
Идентификатор кодека/Информация : UTF-8 Plain Text
Язык : Spanish
Default : Нет
Forced : Нет

Текст #8
Идентификатор : 11
Формат : UTF-8
Идентификатор кодека : S_TEXT/UTF8
Идентификатор кодека/Информация : UTF-8 Plain Text
Язык : Dutch
Default : Нет
Forced : Нет

Текст #9
Идентификатор : 12
Формат : UTF-8
Идентификатор кодека : S_TEXT/UTF8
Идентификатор кодека/Информация : UTF-8 Plain Text
Язык : Portuguese
Default : Нет
Forced : Нет

Внимание! Раздача ведётся путём добавления новых серий; при каждом добавлении создаётся новый торрент.
Чтобы начать докачку новой серии, пользователям необходимо сделать следующее:
1. Остановить скачивание;
2. Удалить старый торрент у себя из клиента (старые серии удалять не надо);
3. Скачать новый торрент и запустить его у себя в клиенте вместо старого, при этом указать клиенту путь в старую папку куда и должно происходить скачивание новых серий. Ваш клиент при этом должен произвести хеширование (проверку) старой папки и будет докачивать только те серии, которых у вас ещё нет. Старые серии при этом не удаляются, а продолжают раздаваться! Eсли вы уже удалили старые серии, то предотвратить повторную закачку старых серий можно, отжав галочку в соответствующих местах при запуске нового торрента.

pb.wtf



Скачать Линкольн для адвоката через торрент https://i3.imageban.ru/out/2022/05/14/03d7c2c7affe432a7fd6e19fd8f21af4.png Скачать, смотреть онлайн Линкольн для адвоката бесплантно в хорошем качестве Описание: Экранизация романа «Свинцовый вердикт» Майкла Коннели. Микки Холлер, успешный адвокат из Лос-Анджелеса, оказавшийся вне игры ... 5.5 10 6
Торрент: Зарегистрирован [2022-05-18 04:51] · скачан: 70 раз
Статус: √ проверено
Размер: 17.24 GB
Как cкачать? Как скачать Линкольн для адвоката через торрент | UTorrent

% Раздел Тема Автор DL S | L
Зарубежные сериалы [ 11.81 GB ] Линкольн для адвоката / Сезон: 1 / Серии: 1-10 из 10 / The Lincoln Lawyer [2022 WEB-DL 1080p] [MVO] killermax2013 Скачать
2 | 1
T Зарубежные сериалы [ 24.55 GB ] Линкольн для адвоката / Сезон: 1 / Серии: 1-10 из 10 / The Lincoln Lawyer [2022 WEBRip 1080p] MVO [ColdFilm] bober100 Скачать
2 | 0

28-11-2019 20:33  

Отключить всю рекламу на сайте

    Дорогой пользователь! Огромная просьба, поблагодарите релизера, оцените раздачу и оставьте свои комментарий, если Вы скачали Линкольн для адвоката через торрент бесплатно!
    Комментировать посты могут только пользователи прошедшие не сложную регистрацию
    Показать сообщения:    

    Линкольн для адвоката через торрент
    Скачать бесплатно Линкольн для адвоката
    Линкольн для адвоката скачать торрент
    Линкольн для адвоката смотреть онлайн
    Cкачать фильм Линкольн для адвоката бесплатно
    Линкольн для адвоката скачать торрент в хорошем качестве
    Линкольн для адвоката смотреть онлайн бесплатно в хорошем качестве


    Вы не можете начинать темы
    Вы не можете отвечать на сообщения
    Вы не можете редактировать свои сообщения
    Вы не можете удалять свои сообщения
    Вы не можете голосовать в опросах
    Вы не можете прикреплять файлы к сообщениям
    Вы можете скачивать файлы