Всегда рабочее зеркало без VPN и Proxy просто перед .vidak.icu напиши любое слово или цифру, Пример http://2dhf.vidak.icu

MVO

Лицензия

1 сезон

1

1 сезон

iTunes

1 сезон

13

1 сезон

Deluxe

pack

Рекомендуем

Пиратка

30

ВАЖНО

RePack

MK11

RePack

jed

RePack

fifa19

RePack

RDR2

RePack

NEED FOR SPEED™ PAYBACK

Кинопоиск HD

6 сезон

 Острые козырьки 6 сезон

Все сериалы

все сериалы на PB.wtf

RePack

FAR CRY 5

Anonymous, нам критически не хватает 2100 руб. на оплату серверов и переферии за МАЙ, помоги нам пожалуйста, вся надежда только на тебя. В благодарность мы отключим тебе всю рекламу на сайте!

×
  
Magnet ссылка

Бэтмен / The Batman (Мэтт Ривз) [2022, Боевик, драма, криминал, детектив, UHD BDRemux 2160p] 3xMVO (rus, ukr) [Jaskier, HDRezka Studio, TVShows] pb.wtf

Бэтмен через торрент pb.wtf

Раздают: 5 [ 8 MB/s ] Качают: 1 [ 0 KB/s ]
Размер: 69.04 GB | Добавлен: 1 мес. 7 д. назад | Торрент скачан:93 раза
Смотреть онлайн Бэтмен | Скачать    Ребята, помогите собрать деньги на оплату серверов!!!

19-05-2022 12:06 Бэтмен Скачать торрент  

Бэтмен
The Batman

Год выпуска: 2022
Страна: США
Выпущено: Warner Bros.6th & Idaho Productions, DC Comics
Жанр: Боевик, драма, криминал, детектив
Продолжительность: 02:56:11
Перевод:
#1: Профессиональный многоголосый | HDRezka Studio
#2: Профессиональный многоголосый | Jaskier
#3: Профессиональный многоголосый | TVShows
Субтитры: Русские (Forced, full), украинские (Forced, full), английские

Режиссер: Мэтт Ривз

rating

В ролях: Роберт Паттинсон, Зои Кравиц, Колин Фаррелл, Джеффри Райт, Пол Дано, Джейми Лоусон, Энди Серкис, Джон Туртурро, Питер Сарсгаард, Кон О’Нилл, Макс Карвер, Чарли Карвер, Марк Киллин

Описание: Два года борьбы с преступностью под маской Бэтмена приводят Брюса Уэйна в самые темные закоулки Готэм-сити. Когда объявляется загадочный убийца, угрожающий элите города, Бэтмен погружается в недра криминального мира, где на его пути оказывается Женщина-кошка Селина Кайл, Освальд Кобблпот, известный как Пингвин, Кармайн Фальконе и Эдвард Нэштон — он же Загадочник. С помощью своих союзников — Альфреда Пенниворта и лейтенанта Джеймса Гордона — Уэйну предстоит разоблачить злодея и восстановить справедливость среди коррумпированной власти, отравляющей жизнь Готэма.

Качество: UHD BDRemux 2160p
Формат: MKV

Видео: 3840x2160 at 23.976 fps, MPEG-H HEVC HDR, ~ 51000 kbps avg
Аудио #01: 48 kHz, AC3, 5.1, 448 Kbps | Профессиональный многоголосый | HDRezka Studio | RUS |
Аудио #02: 48 kHz, AC3, 5.1, 448 Kbps | Профессиональный многоголосый | Jaskier | RUS |
Аудио #03: 48 kHz, AC3, 2.0, 192 Kbps | Профессиональный многоголосый | TVShows | RUS |
Аудио #04: 48 kHz, AC3, 5.1, 448 Kbps | Профессиональный многоголосый | HDRezka Studio | UKR |
Аудио #05: 48 kHz, TrueHD, 7.1, 3028 Kbps | Оригинал | ENG |
Аудио #06: 48 kHz, AC3, 5.1, 448 Kbps | Оригинал | ENG |
скриншот  скриншот  скриншот  скриншот  скриншот  

General
Unique ID : 112954167885909554068260127362137453349 (0x54FA2E72080C31233AC1C6C7DA5FF325)
Complete name : D:Video1The.Batman.2022.BDREMUX.2160p.HDR.seleZen.mkv
Format : Matroska
Format version : Version 4
File size : 69.0 GiB
Duration : 2 h 56 min
Overall bit rate mode : Variable
Overall bit rate : 56.1 Mb/s
Movie name : The Batman 2022 from seleZen
Encoded date : UTC 2022-05-18 12:17:19
Writing application : mkvmerge v59.0.0 ('Shining Star') 64-bit
Writing library : libebml v1.4.2 + libmatroska v1.6.4

Video
ID : 1
Format : HEVC
Format/Info : High Efficiency Video Coding
Format profile : Main 10@L5.1@High
HDR format : SMPTE ST 2086, HDR10 compatible
Codec ID : V_MPEGH/ISO/HEVC
Duration : 2 h 56 min
Bit rate : 51.0 Mb/s
Width : 3 840 pixels
Height : 2 160 pixels
Display aspect ratio : 16:9
Frame rate mode : Constant
Frame rate : 23.976 (24000/1001) FPS
Color space : YUV
Chroma subsampling : 4:2:0 (Type 2)
Bit depth : 10 bits
Bits/(Pixel*Frame) : 0.257
Stream size : 62.8 GiB (91%)
Language : English
Default : Yes
Forced : No
Color range : Limited
Color primaries : BT.2020
Transfer characteristics : PQ
Matrix coefficients : BT.2020 non-constant
Mastering display color pri: Display P3
Mastering display luminance: min: 0.0001 cd/m2, max: 1000 cd/m2
Maximum Content Light Level: 413 cd/m2
Maximum Frame-Average Light: 65 cd/m2

Audio #1
ID : 2
Format : AC-3
Format/Info : Audio Coding 3
Commercial name : Dolby Digital
Codec ID : A_AC3
Duration : 2 h 56 min
Bit rate mode : Constant
Bit rate : 448 kb/s
Channel(s) : 6 channels
Channel layout : L R C LFE Ls Rs
Sampling rate : 48.0 kHz
Frame rate : 31.250 FPS (1536 SPF)
Compression mode : Lossy
Stream size : 564 MiB (1%)
Title : MVO [HDRezka Studio]
Language : Russian
Service kind : Complete Main
Default : Yes
Forced : Yes

Audio #2
ID : 3
Format : AC-3
Format/Info : Audio Coding 3
Commercial name : Dolby Digital
Codec ID : A_AC3
Duration : 2 h 56 min
Bit rate mode : Constant
Bit rate : 448 kb/s
Channel(s) : 6 channels
Channel layout : L R C LFE Ls Rs
Sampling rate : 48.0 kHz
Frame rate : 31.250 FPS (1536 SPF)
Compression mode : Lossy
Stream size : 564 MiB (1%)
Title : MVO [Jaskier]
Language : Russian
Service kind : Complete Main
Default : No
Forced : No

Audio #3
ID : 4
Format : AC-3
Format/Info : Audio Coding 3
Commercial name : Dolby Digital
Codec ID : A_AC3
Duration : 2 h 56 min
Bit rate mode : Constant
Bit rate : 192 kb/s
Channel(s) : 2 channels
Channel layout : L R
Sampling rate : 48.0 kHz
Frame rate : 31.250 FPS (1536 SPF)
Compression mode : Lossy
Stream size : 242 MiB (0%)
Title : MVO [TVShows]
Language : Russian
Service kind : Complete Main
Default : No
Forced : No

Audio #4
ID : 5
Format : AC-3
Format/Info : Audio Coding 3
Commercial name : Dolby Digital
Codec ID : A_AC3
Duration : 2 h 56 min
Bit rate mode : Constant
Bit rate : 448 kb/s
Channel(s) : 6 channels
Channel layout : L R C LFE Ls Rs
Sampling rate : 48.0 kHz
Frame rate : 31.250 FPS (1536 SPF)
Compression mode : Lossy
Stream size : 564 MiB (1%)
Title : MVO [HDRezka Studio]
Language : Ukrainian
Service kind : Complete Main
Default : No
Forced : No

Audio #5
ID : 6
Format : MLP FBA 16-ch
Format/Info : Meridian Lossless Packing FBA with 16-channel presentation
Commercial name : Dolby TrueHD with Dolby Atmos
Codec ID : A_TRUEHD
Duration : 2 h 56 min
Bit rate mode : Variable
Bit rate : 3 028 kb/s
Maximum bit rate : 5 271 kb/s
Channel(s) : 8 channels
Channel layout : L R C LFE Ls Rs Lb Rb
Sampling rate : 48.0 kHz
Frame rate : 1 200.000 FPS (40 SPF)
Compression mode : Lossless
Stream size : 3.73 GiB (5%)
Title : Original
Language : English
Default : No
Forced : No
Number of dynamic objects : 11
Bed channel count : 1 channel
Bed channel configuration : LFE

Audio #6
ID : 7
Format : AC-3
Format/Info : Audio Coding 3
Commercial name : Dolby Digital
Format settings : Dolby Surround EX
Codec ID : A_AC3
Duration : 2 h 56 min
Bit rate mode : Constant
Bit rate : 448 kb/s
Channel(s) : 6 channels
Channel layout : L R C LFE Ls Rs
Sampling rate : 48.0 kHz
Frame rate : 31.250 FPS (1536 SPF)
Compression mode : Lossy
Stream size : 565 MiB (1%)
Language : English
Service kind : Complete Main
Default : No
Forced : No

Text #1
ID : 8
Format : UTF-8
Codec ID : S_TEXT/UTF8
Codec ID/Info : UTF-8 Plain Text
Duration : 2 h 34 min
Bit rate : 3 b/s
Count of elements : 109
Stream size : 4.35 KiB (0%)
Title : Forced [HDRezka Studio]
Language : Russian
Default : Yes
Forced : Yes

Text #2
ID : 9
Format : UTF-8
Codec ID : S_TEXT/UTF8
Codec ID/Info : UTF-8 Plain Text
Duration : 2 h 46 min
Bit rate : 76 b/s
Count of elements : 1907
Stream size : 93.7 KiB (0%)
Title : Full [FOCS]
Language : Russian
Default : No
Forced : No

Text #3
ID : 10
Format : UTF-8
Codec ID : S_TEXT/UTF8
Codec ID/Info : UTF-8 Plain Text
Duration : 2 h 46 min
Bit rate : 83 b/s
Count of elements : 1898
Stream size : 101 KiB (0%)
Title : Full [Cool Story Blog]
Language : Russian
Default : No
Forced : No

Text #4
ID : 11
Format : UTF-8
Codec ID : S_TEXT/UTF8
Codec ID/Info : UTF-8 Plain Text
Duration : 2 h 47 min
Bit rate : 1 b/s
Count of elements : 48
Stream size : 1.76 KiB (0%)
Title : Full [HDRezka Studio]
Language : Ukrainian
Default : No
Forced : No

Text #5
ID : 12
Format : UTF-8
Codec ID : S_TEXT/UTF8
Codec ID/Info : UTF-8 Plain Text
Duration : 2 h 44 min
Bit rate : 82 b/s
Count of elements : 1898
Stream size : 99.1 KiB (0%)
Title : Full [JeniaRudik]
Language : Ukrainian
Default : No
Forced : No

Text #6
ID : 13
Format : UTF-8
Codec ID : S_TEXT/UTF8
Codec ID/Info : UTF-8 Plain Text
Duration : 2 h 43 min
Bit rate : 45 b/s
Count of elements : 2040
Stream size : 54.7 KiB (0%)
Title : Full
Language : English
Default : No
Forced : No

Text #7
ID : 14
Format : UTF-8
Codec ID : S_TEXT/UTF8
Codec ID/Info : UTF-8 Plain Text
Duration : 2 h 55 min
Bit rate : 53 b/s
Count of elements : 2573
Stream size : 69.3 KiB (0%)
Title : SDH
Language : English
Default : No
Forced : No

Menu
00:00:00.000 : Глава 01
00:12:01.429 : Глава 02
00:23:21.692 : Глава 03
00:31:53.870 : Глава 04
00:41:44.544 : Глава 05
00:51:36.719 : Глава 06
01:00:12.943 : Глава 07
01:10:32.437 : Глава 08
01:18:35.169 : Глава 09
01:29:14.766 : Глава 10
01:42:33.189 : Глава 11
01:52:16.939 : Глава 12
01:58:21.261 : Глава 13
02:09:40.022 : Глава 14
02:21:14.508 : Глава 15
02:27:31.384 : Глава 16
02:38:36.048 : Глава 17
02:46:58.383 : Глава 18

pb.wtf



Скачать Бэтмен через торрент https://i118.fastpic.org/big/2022/0519/20/4a50ba737af6b237492650ebbc999020.jpg Скачать, смотреть онлайн Бэтмен бесплантно в хорошем качестве Описание: Два года борьбы с преступностью под маской Бэтмена приводят Брюса Уэйна в самые темные закоулки Готэм-сити. Когда объявляется ... 10 10 8
Info! Золотая раздача, скачанное не засчитывается.
Торрент: Зарегистрирован [2022-05-19 12:06] · скачан: 93 раз
Статус: √ проверено
Размер: 69.04 GB
Как cкачать? Как скачать Бэтмен через торрент | UTorrent

% Раздел Тема Автор DL S | L
Фильмы [HD 720p, 1080p] (Хороший звук DUB, MVO) [ 16.97 GB ] Бэтмен / The Batman [2022 BDRip 1080p] bober100 Скачать
20 | 0
Фильмы 2022 [DVDrip, WEB-DLRip, HDrip] (DUB, MVO) [ 1.46 GB ] Бэтмен / The Batman [2022 BDRip] bober100 Скачать
11 | 0
Ultra HD (UHD: 2K, 4K, 8K) — видео сверхвысокой чёткости [ 74.59 GB ] Бэтмен / The Batman [2022 UHD BDRemux 2160p ] bober100 Скачать
2 | 0
Фильмы 2022 [DVDrip, WEB-DLRip, HDrip] (DUB, MVO) [ 3.48 GB ] Бэтмен / The Batman [2022 BDRip-AVC] bober100 Скачать
41 | 0
Фильмы [HD 720p, 1080p] (Хороший звук DUB, MVO) [ 8.67 GB ] Бэтмен / The Batman [2022 BDRip 720p] bober100 Скачать
9 | 0
Фильмы 2022 [DVDrip, WEB-DLRip, HDrip] (DUB, MVO) [ 2.82 GB ] Бэтмен / The Batman [2022 BDRip] bober100 Скачать
11 | 0
Фильмы 2022 [DVDrip, WEB-DLRip, HDrip] (DUB, MVO) [ 1.46 GB ] Бэтмен / The Batman [2022 BDRip] MVO [HDRezka Studio] bober100 Скачать
7 | 0

28-11-2019 20:33  

Отключить всю рекламу на сайте

28-05-2022 20:47 Бэтмен Скачать торрент  

Можно сюда добавить аудиодорожку iTunes?=)pb.wtf



    Дорогой пользователь! Огромная просьба, поблагодарите релизера, оцените раздачу и оставьте свои комментарий, если Вы скачали Бэтмен через торрент бесплатно!
    Комментировать посты могут только пользователи прошедшие не сложную регистрацию
    Показать сообщения:    

    Бэтмен через торрент
    Скачать бесплатно Бэтмен
    Бэтмен скачать торрент
    Бэтмен смотреть онлайн
    Cкачать фильм Бэтмен бесплатно
    Бэтмен скачать торрент в хорошем качестве
    Бэтмен смотреть онлайн бесплатно в хорошем качестве


    Вы не можете начинать темы
    Вы не можете отвечать на сообщения
    Вы не можете редактировать свои сообщения
    Вы не можете удалять свои сообщения
    Вы не можете голосовать в опросах
    Вы не можете прикреплять файлы к сообщениям
    Вы можете скачивать файлы