Всегда рабочее зеркало без VPN и Proxy просто перед .vidak.icu напиши любое слово или цифру, Пример http://fad2.vidak.icu

Лицензия

MVO

1 сезон

1

1 сезон

iTunes

1 сезон

13

1 сезон

Deluxe

pack

Рекомендуем

Repack

30

ВАЖНО

RePack

MK11

RePack

jed

RePack

fifa19

RePack

RDR2

RePack

NEED FOR SPEED™ PAYBACK

Кинопоиск HD

6 сезон

 Острые козырьки 6 сезон

Все сериалы

все сериалы на PB.wtf

RePack

FAR CRY 5
  
Magnet ссылка

Нулевой пациент / Сезон: 1 / Серии: 1-7 из 7 + Фильм о фильме (Сергей Трофимов, Евгений Стычкин) [2022, Драма, WEBRip-AVC] pb.wtf

Нулевой пациент через торрент pb.wtf

Раздают: 4 [ 19 KB/s ]
Размер: 6.38 GB | Добавлен: 1 мес. 22 д. назад | Торрент скачан:194 раза
Смотреть онлайн Нулевой пациент | Скачать    Ребята, помогите собрать деньги на оплату серверов!!!

19-05-2022 17:25 Нулевой пациент Скачать торрент  

Нулевой пациент
Год выпуска: 2022
Страна: Россия
Выпущено: Кинокомпания ООО ПК «Среда»
Жанр: Драма
Продолжительность: ~ 00:50:00
Перевод: Не требуется
Субтитры: Русские (полные)

Режиссер: Сергей Трофимов, Евгений Стычкин

rating

В ролях: Аскар Ильясов, Никита Ефремов, Елизавета Шакира, Евгения Манджиева, Евгений Стычкин, Павел Майков, Игорь Гордин, Виктория Агалакова, Сейдулла Молдаханов, Иван Добронравов, Игорь Бочкин, Анастасия Болдырева, Евгений Сытый, Анабелла Посохова, Николай Шрайбер, Анастасия Грачёва, Евгений Писарев, Владимир Стеклов, Алексей Маклаков, Мадлен Джабраилова, Дмитрий Колчин, Роман Синицын, Евгений Санников, Александр Никольский, Олег Суховерхов, Александра Черкасова-Служитель, Сергей Гостюжев, Геннадий Смирнов, Баира Манджиева, Владимир Пашкаев, Нуране Атхаева, Лира Кекеева, Алексей Максименко, Александр Ковалёв, Давид Ниамеди, Кристина Шелобкова, Григорий Перель, Татьяна Полосина, Сергей Тезов, Елена Одинцова, Сергей Годин, Вячеслав Щенин, Мария Померанцева, Ольга Плешкова, Юлия Джулай, Эвелина Мазурина, Олег Жуков, Александр Пахомов, Анатолий Просалов, Сергей Иванюк, Артем Манукян, Андрей Харенко, Любовь Германова, Анастасия Куза, Надежда Варочкина, Елена Посоюзных, Артем Семакин, Юрий Лопарев, Сергей Померанцев, Александр Базоев, Дмитрий Титов, Виктор Башинский, Владимир Беркун, Александр Комиссаров, Александр Сибирцев, Ольга Незговорова, Максим Емельянов, Евгений Потапенко, Юлия Лопанова, Ольга Анохина, Светлана Васина, Нариман Утакаев, Ирина Паутова, Алла Малкова, Аюш Очир-Горяев, Рамиль Сабитов, Аслан Цаллати, Адьян Бакаев, Никита Волошин, Очир Эрднеев, Баин Бовальдинов, Ксения Рябинкина, Егор Моисеев, Любовь Владимирова, Нина Гусева, Азамат Нигманов, Дмитрий Радонов, Сергей Уманов, Виталий Ходин, Николай Алипа, Евгения Шипова, Иван Кукуев, Михаил Салин, Юлия Черепнина, Екатерина Фоменко, Алексей Фетисов, Нина Андронаки, Ольга Калашникова, Александр Стешенко, Нариман Бахтияров, Екатерина Кротова, Юлия Куксина, Михаил Левин, Денис Бекетов, Ирик Темерьянов

Описание: 1988 год, Калмыцкая АССР. Молодой врач детской больницы Кирсан Аюшев подозревает, что у нескольких его пациентов ВИЧ. Старшие коллеги не верят, что такое возможно, поэтому Кирсан тайком отправляет пробы в Москву. Когда анализы подтверждают его правоту, к делу подключается ученый Дмитрий Гончаров - специалист по малоизвестной в СССР «экзотической» болезни. Теперь судьба десятков детей и нескольких взрослых - а, возможно, и всей страны - зависит от действий столичного эпидемиолога и провинциального педиатра.

Качество: WEBRip-AVC
Формат: MKV

Видео: MPEG-4 AVC, ~ 1600 Кбит/с, 1024x432, 25 кадр/с
Аудио №1: AC3, 6 ch, 448 Кбит/с | Версия 18+
Аудио №2: E-AC3, 6 ch, 448 Кбит/с | Версия 18+
скриншот  скриншот  скриншот  скриншот  скриншот  скриншот  

General
Unique ID : 206732495875193107714205319246834109346 (0x9B873AFD5AF280813343CA4667E10BA2)
Complete name : F:\Нулевой пациент.(2022).WEBRip.(AVC).Files-x\01.Нулевой пациент.(2022).WEBRip.(AVC).by.Серый1779.Files-x.mkv
Format : Matroska
Format version : Version 4 / Version 2
File size : 832 MiB
Duration : 46 min 43 s
Overall bit rate : 2 490 kb/s
Movie name : Nulevoj.pacient.S01.E01.2022.WEB-DL.1080p
Encoded date : UTC 2022-05-19 15:28:28
Writing application : mkvmerge v32.0.0 ('Astral Progressions') 64-bit
Writing library : libebml v1.3.7 + libmatroska v1.5.0
Attachments : poster.jpg

Video
ID : 1
Format : AVC
Format/Info : Advanced Video Codec
Format profile : [email protected]
Format settings : CABAC / 9 Ref Frames
Format settings, CABAC : Yes
Format settings, RefFrames : 9 frames
Codec ID : V_MPEG4/ISO/AVC
Duration : 46 min 43 s
Bit rate : 1 600 kb/s
Width : 1 024 pixels
Height : 432 pixels
Display aspect ratio : 2.40:1
Frame rate mode : Constant
Frame rate : 25.000 FPS
Color space : YUV
Chroma subsampling : 4:2:0
Bit depth : 8 bits
Scan type : Progressive
Bits/(Pixel*Frame) : 0.145
Stream size : 532 MiB (64%)
Writing library : x264 core 146 r2538 121396c
Encoding settings : cabac=1 / ref=9 / deblock=1:-2:-1 / analyse=0x3:0x133 / me=umh / subme=9 / psy=1 / psy_rd=1.00:0.15 / mixed_ref=1 / me_range=32 / chroma_me=1 / trellis=2 / 8x8dct=1 / cqm=0 / deadzone=21,11 / fast_pskip=0 / chroma_qp_offset=-3 / threads=18 / lookahead_threads=3 / sliced_threads=0 / nr=0 / decimate=1 / interlaced=0 / bluray_compat=0 / constrained_intra=0 / bframes=9 / b_pyramid=2 / b_adapt=2 / b_bias=0 / direct=1 / weightb=1 / open_gop=0 / weightp=2 / keyint=250 / keyint_min=25 / scenecut=40 / intra_refresh=0 / rc=2pass / mbtree=0 / bitrate=1600 / ratetol=1.0 / qcomp=0.60 / qpmin=0 / qpmax=69 / qpstep=4 / cplxblur=20.0 / qblur=0.5 / ip_ratio=1.40 / pb_ratio=1.30 / aq=2:1.00
Default : Yes
Forced : No
Color range : Limited
Color primaries : BT.709
Transfer characteristics : BT.709
Matrix coefficients : BT.709

Audio #1
ID : 2
Format : AC-3
Format/Info : Audio Coding 3
Format settings, Endianness : Big
Codec ID : A_AC3
Duration : 46 min 43 s
Bit rate mode : Constant
Bit rate : 448 kb/s
Channel(s) : 6 channels
Channel positions : Front: L C R, Side: L R, LFE
Sampling rate : 48.0 kHz
Frame rate : 31.250 FPS (1536 SPF)
Bit depth : 16 bits
Compression mode : Lossy
Stream size : 150 MiB (18%)
Title : [AC3 Audio]
Language : Russian
Service kind : Complete Main
Default : Yes
Forced : No

Audio #2
ID : 3
Format : E-AC-3
Format/Info : Enhanced Audio Coding 3
Format settings, Endianness : Big
Codec ID : A_EAC3
Duration : 46 min 43 s
Bit rate mode : Constant
Bit rate : 448 kb/s
Channel(s) : 6 channels
Channel positions : Front: L C R, Side: L R, LFE
Sampling rate : 48.0 kHz
Frame rate : 187.500 FPS (256 SPF)
Compression mode : Lossy
Stream size : 150 MiB (18%)
Title : [E-AC3 Audio]
Language : Russian
Service kind : Complete Main
Default : No
Forced : No

Text
ID : 4
Format : UTF-8
Codec ID : S_TEXT/UTF8
Codec ID/Info : UTF-8 Plain Text
Duration : 41 min 6 s
Bit rate : 88 b/s
Count of elements : 520
Stream size : 26.6 KiB (0%)
Title : [Full]
Language : Russian
Default : No
Forced : No

Внимание! Раздача ведётся путём добавления новых серий; при каждом добавлении создаётся новый торрент.
Чтобы начать докачку новой серии, пользователям необходимо сделать следующее:
1. Остановить скачивание;
2. Удалить старый торрент у себя из клиента (старые серии удалять не надо);
3. Скачать новый торрент и запустить его у себя в клиенте вместо старого, при этом указать клиенту путь в старую папку куда и должно происходить скачивание новых серий. Ваш клиент при этом должен произвести хеширование (проверку) старой папки и будет докачивать только те серии, которых у вас ещё нет. Старые серии при этом не удаляются, а продолжают раздаваться! Eсли вы уже удалили старые серии, то предотвратить повторную закачку старых серий можно, отжав галочку в соответствующих местах при запуске нового торрента.

pb.wtf



Скачать Нулевой пациент через торрент https://i117.fastpic.org/big/2022/0519/89/b97c96123d10bf6587113d45ce887489.png Скачать, смотреть онлайн Нулевой пациент бесплантно в хорошем качестве Описание: 1988 год, Калмыцкая АССР. Молодой врач детской больницы Кирсан Аюшев подозревает, что у нескольких его пациентов ВИЧ. Старшие ... 8 10 9
Торрент: Зарегистрирован [2022-06-23 12:54] · скачан: 194 раз
Статус: √ проверено
Размер: 6.38 GB
Как cкачать? Как скачать Нулевой пациент через торрент | UTorrent

% Раздел Тема Автор DL S | L
Наши сериалы [ 5.49 GB ] Нулевой пациент / Сезон: 1 / Серии: 1-7 из 7 + [2022 WEBRip] GEKADOL Скачать
9 | 2
Наши сериалы [ 17.83 GB ] Нулевой пациент / Сезон: 1 / Серии: 1-7 из 7 + Фильм о фильме [2022 WEBRip 1080p] bober100 Скачать
9 | 1
Наши сериалы [ 12.64 GB ] Нулевой пациент / Сезон: 1 / Серии: 1-7 из 7 + Фильм о фильме [2022 WEBRip 720p] bober100 Скачать
3 | 2


Последний раз редактировалось: bober100 (2022-05-25 07:17), всего редактировалось 2 раз(а)

28-11-2019 20:33  

Отключить вcю реклaмy на сайте

    Дорогой пользователь! Огромная просьба, поблагодарите релизера, оцените раздачу и оставьте свои комментарий, если Вы скачали Нулевой пациент через торрент бесплатно!
    Комментировать посты могут только пользователи прошедшие не сложную регистрацию
    Показать сообщения:    

    Нулевой пациент через торрент
    Скачать бесплатно Нулевой пациент
    Нулевой пациент скачать торрент
    Нулевой пациент смотреть онлайн
    Cкачать фильм Нулевой пациент бесплатно
    Нулевой пациент скачать торрент в хорошем качестве
    Нулевой пациент смотреть онлайн бесплатно в хорошем качестве


    Вы не можете начинать темы
    Вы не можете отвечать на сообщения
    Вы не можете редактировать свои сообщения
    Вы не можете удалять свои сообщения
    Вы не можете голосовать в опросах
    Вы не можете прикреплять файлы к сообщениям
    Вы можете скачивать файлы