Достать ножи: Стеклянная луковица

MVO

Добыча

Дубляж

Уэнсдэй

1 сезон

Тор

Дубляж

13 клиническая

1 сезон

Жестокая ночь

MVO

Одни из нас

1 сезон

Deluxe

pack

Рекомендуем

30

Пиратка

ВАЖНО

ВАЖНО

Ghostwire

Пиратка

jed

RePack

nioh2

RePack

RDR2

RePack

NEED FOR SPEED™ PAYBACK

RePack

скачать торрент

Кинопоиск HD

Острые козырьки 6 сезон

6 сезон

FAR CRY 6

RePack

скачать торрент

Лицензия

скачать торрент

MVO

1

1 сезон

скачать торрент

1 сезон

скачать торрент

Лицензия

  

Босс-молокосос: Колыбель зовет / The Boss Baby: Back in the Crib / Сезон: 1 / Серии: 1-12 из 12 (Пит Джейкобс, Кристо Стамболев, Дэн Форджоне) [2022, Мультфильм, комедия, приключения, WEB-DL 1080p] Дубляж [Пифагор / Netflix]

Босс-молокосос: Колыбель зовет через торрент pb.wtf

Раздают: 1 [ 0 KB/s ]
Размер: 7.82 GB | Добавлен: 8 мес. назад | Торрент скачан:127 раз
Смотреть онлайн | Скачать | Поддержите нас   

19-05-2022 18:17 Босс-молокосос: Колыбель зовет Скачать торрент  

Босс-молокосос: Колыбель зовет
The Boss Baby: Back in the Crib

Год выпуска: 2022
Страна: США
Выпущено: DreamWorks Animation Television, DreamWorks Animation
Жанр: Мультфильм, комедия, приключения
Продолжительность: ~ 00:25:00
Перевод: Дублированный | Пифагор по заказу Netflix
Субтитры: Русские (Forced, Full), английские (SDH), иврит, румынские, украинские

Режиссер: Пит Джейкобс, Кристо Стамболев, Дэн Форджоне, Мэтт Уитлок, Аллан Якобсен

rating

В ролях: Джон Пол Карлиак, Пирс Гэнон, Хоуп Леви, Дэвид В. Коллинз, Флула Борг, Кевин Майкл Ричардсон, Алекс Казарез, Брэндон Скотт, Эрик Белл мл., Нора Данн, Джэйк Грин, Виктор Рэйдер-Векслер, Тора Ким, Кари Уолгрен, Сэнти Нелсен

Описание: В новой части франшизы в центре событий вновь оказывается деловитый малыш, а также все члены семьи Темплтонов. Взрослого Теда Темплтона обвиняют в совершении корпоративного преступления. Чтобы уклониться от ответственности за финансовые растраты, Тед снова становится Боссом-молокососом. Он собирается жить под прикрытием, объединившись со своим братом Томом и выдавая себя за одного из его отпрысков. Тед вместе со своими прелестными племянницами Тиной и Табитой планирует как следует повеселиться.

Качество: WEB-DL 1080p
Формат: MKV

Видео: MPEG-4 AVC, 1920x1080 (16:9), 23.976 fps, ~2490 kbps
Аудио Rus: E-AC3, 48 kHz, 6 ch, 640 kbps |Невафильм|
Аудио Eng: E-AC3, 48 kHz, 6 ch, 640 kbps |Original|
скриншот  скриншот  скриншот  скриншот  

General
Unique ID : 75636592223248505619737099553140786626 (0x38E713E9BEBA44AB504E735B5D7A45C2)
Complete name : The.Boss.Baby.Back.in.the.Crib.S01E01.The.Business.Boss.Back.in.Baby.1080p.NF.WEB-DL.DDP5.1.H.264-EniaHD.mkv
Format : Matroska
Format version : Version 4
File size : 639 MiB
Duration : 24 min 20 s
Overall bit rate mode : Variable
Overall bit rate : 3 667 kb/s
Movie name : The Boss Baby: Back in the Crib S01E01 [The Business Boss: Back in Baby] - EniaHD
Writing application : mkvmerge v57.0.0 ('Till The End') 64-bit
Writing library : libebml v1.4.2 + libmatroska v1.6.4

Video
ID : 1
Format : AVC
Format/Info : Advanced Video Codec
Format profile : [email protected]
Format settings : CABAC / 3 Ref Frames
Format settings, CABAC : Yes
Format settings, Reference fra : 3 frames
Codec ID : V_MPEG4/ISO/AVC
Duration : 24 min 20 s
Bit rate mode : Variable
Bit rate : 2 490 kb/s
Maximum bit rate : 3 735 kb/s
Width : 1 920 pixels
Height : 1 080 pixels
Display aspect ratio : 16:9
Frame rate mode : Constant
Frame rate : 23.976 (24000/1001) FPS
Color space : YUV
Chroma subsampling : 4:2:0
Bit depth : 8 bits
Scan type : Progressive
Bits/(Pixel*Frame) : 0.050
Stream size : 415 MiB (65%)
Writing library : x264 core 148 r2727 7d026e8
Encoding settings : cabac=1 / ref=3 / deblock=1:0:0 / analyse=0x1:0x111 / me=umh / subme=10 / psy=1 / psy_rd=1.00:0.00 / mixed_ref=1 / me_range=24 / chroma_me=1 / trellis=2 / 8x8dct=0 / cqm=0 / deadzone=21,11 / fast_pskip=1 / chroma_qp_offset=-2 / threads=8 / lookahead_threads=1 / sliced_threads=0 / nr=0 / decimate=1 / interlaced=0 / bluray_compat=0 / stitchable=1 / constrained_intra=0 / bframes=2 / b_pyramid=0 / b_adapt=2 / b_bias=0 / direct=3 / weightb=1 / open_gop=0 / weightp=2 / keyint=250 / keyint_min=23 / scenecut=0 / intra_refresh=0 / rc_lookahead=48 / rc=2pass / mbtree=1 / bitrate=2490 / ratetol=1.0 / qcomp=0.50 / qpmin=6 / qpmax=51 / qpstep=4 / cplxblur=20.0 / qblur=0.5 / vbv_maxrate=3735 / vbv_bufsize=4980 / nal_hrd=vbr / filler=0 / ip_ratio=1.40 / aq=1:1.00
Default : Yes
Forced : No

Audio #1
ID : 2
Format : E-AC-3
Format/Info : Enhanced AC-3
Commercial name : Dolby Digital Plus
Codec ID : A_EAC3
Duration : 24 min 20 s
Bit rate mode : Constant
Bit rate : 640 kb/s
Channel(s) : 6 channels
Channel layout : L R C LFE Ls Rs
Sampling rate : 48.0 kHz
Frame rate : 31.250 FPS (1536 SPF)
Compression mode : Lossy
Stream size : 111 MiB (17%)
Language : Russian
Service kind : Complete Main
Default : Yes
Forced : No

Audio #2
ID : 3
Format : E-AC-3
Format/Info : Enhanced AC-3
Commercial name : Dolby Digital Plus
Codec ID : A_EAC3
Duration : 24 min 20 s
Bit rate mode : Constant
Bit rate : 640 kb/s
Channel(s) : 6 channels
Channel layout : L R C LFE Ls Rs
Sampling rate : 48.0 kHz
Frame rate : 31.250 FPS (1536 SPF)
Compression mode : Lossy
Stream size : 111 MiB (17%)
Language : English
Service kind : Complete Main
Default : No
Forced : No

Text #1
ID : 4
Format : UTF-8
Codec ID : S_TEXT/UTF8
Codec ID/Info : UTF-8 Plain Text
Duration : 23 min 5 s
Bit rate : 0 b/s
Count of elements : 2
Stream size : 109 Bytes (0%)
Title : Forced
Language : Russian
Default : Yes
Forced : No

Text #2
ID : 5
Format : UTF-8
Codec ID : S_TEXT/UTF8
Codec ID/Info : UTF-8 Plain Text
Duration : 23 min 5 s
Bit rate : 127 b/s
Count of elements : 434
Stream size : 21.5 KiB (0%)
Language : Russian
Default : No
Forced : No

Text #3
ID : 6
Format : UTF-8
Codec ID : S_TEXT/UTF8
Codec ID/Info : UTF-8 Plain Text
Duration : 22 min 53 s
Bit rate : 111 b/s
Count of elements : 504
Stream size : 18.6 KiB (0%)
Title : SDH
Language : English
Default : No
Forced : No

Text #4
ID : 7
Format : UTF-8
Codec ID : S_TEXT/UTF8
Codec ID/Info : UTF-8 Plain Text
Duration : 23 min 5 s
Bit rate : 156 b/s
Count of elements : 437
Stream size : 26.4 KiB (0%)
Language : Hebrew
Default : No
Forced : No

Text #5
ID : 8
Format : UTF-8
Codec ID : S_TEXT/UTF8
Codec ID/Info : UTF-8 Plain Text
Duration : 23 min 5 s
Bit rate : 85 b/s
Count of elements : 420
Stream size : 14.4 KiB (0%)
Language : Romanian
Default : No
Forced : No

Text #6
ID : 9
Format : UTF-8
Codec ID : S_TEXT/UTF8
Codec ID/Info : UTF-8 Plain Text
Duration : 23 min 5 s
Bit rate : 142 b/s
Count of elements : 441
Stream size : 24.1 KiB (0%)
Language : Ukrainian
Default : No
Forced : No

Внимание! Раздача ведётся путём добавления новых серий; при каждом добавлении создаётся новый торрент.
Чтобы начать докачку новой серии, пользователям необходимо сделать следующее:
1. Остановить скачивание;
2. Удалить старый торрент у себя из клиента (старые серии удалять не надо);
3. Скачать новый торрент и запустить его у себя в клиенте вместо старого, при этом указать клиенту путь в старую папку куда и должно происходить скачивание новых серий. Ваш клиент при этом должен произвести хеширование (проверку) старой папки и будет докачивать только те серии, которых у вас ещё нет. Старые серии при этом не удаляются, а продолжают раздаваться! Eсли вы уже удалили старые серии, то предотвратить повторную закачку старых серий можно, отжав галочку в соответствующих местах при запуске нового торрента.




Скачать Босс-молокосос: Колыбель зовет через торрент https://i1-imageban-ru.translate.goog/out/2022/05/19/611b504404a96459384489b67d15ba92.jpg Скачать, смотреть онлайн Босс-молокосос: Колыбель зовет бесплантно в хорошем качестве Описание: В новой части франшизы в центре событий вновь оказывается деловитый малыш, а также все члены семьи Темплтонов. Взрослого Теда ... 10 10 2
Торрент: Зарегистрирован [2022-05-19 18:17] · скачан: 127 раз
Статус: √ проверено
Размер: 7.82 GB
Как cкачать? Как скачать Босс-молокосос: Колыбель зовет через торрент | UTorrent

28-11-2019 20:33  


Отключить вcю реклaмy на сайте, в т.ч. и в плеере онлайн просмотра!

    Дорогой пользователь! Огромная просьба, поблагодарите релизера, оцените раздачу и оставьте свои комментарий, если Вы скачали Босс-молокосос: Колыбель зовет через торрент бесплатно!!
    Комментировать посты могут только пользователи прошедшие не сложную регистрацию
    Показать сообщения:    


    Босс-молокосос: Колыбель зовет через торрент
    Скачать бесплатно Босс-молокосос: Колыбель зовет
    Босс-молокосос: Колыбель зовет скачать торрент
    Босс-молокосос: Колыбель зовет смотреть онлайн
    Cкачать фильм Босс-молокосос: Колыбель зовет бесплатно
    Босс-молокосос: Колыбель зовет скачать торрент в хорошем качестве
    Босс-молокосос: Колыбель зовет смотреть онлайн бесплатно в хорошем качестве
    Вы не можете начинать темы
    Вы не можете отвечать на сообщения
    Вы не можете редактировать свои сообщения
    Вы не можете удалять свои сообщения
    Вы не можете голосовать в опросах
    Вы не можете прикреплять файлы к сообщениям
    Вы можете скачивать файлы
    Босс-молокосос: Колыбель зовет / The Boss Baby: Back in the Crib / Сезон: 1 / Серии: 1-12 из 12 [2022, Мультфильм, комедия, приключения, WEB-DL 1080p] Дубляж [Пифагор / Netflix] смотреть онлайн, скачать торрент picoco.icu