Достать ножи: Стеклянная луковица

MVO

Добыча

Дубляж

Уэнсдэй

1 сезон

Тор

Дубляж

13 клиническая

1 сезон

Жестокая ночь

MVO

Одни из нас

1 сезон

Deluxe

pack

Рекомендуем

30

Пиратка

ВАЖНО

ВАЖНО

Ghostwire

Пиратка

jed

RePack

nioh2

RePack

RDR2

RePack

NEED FOR SPEED™ PAYBACK

RePack

скачать торрент

Кинопоиск HD

Острые козырьки 6 сезон

6 сезон

FAR CRY 6

RePack

скачать торрент

Лицензия

скачать торрент

MVO

1

1 сезон

скачать торрент

1 сезон

скачать торрент

Лицензия

  

Любовь, смерть и роботы / Love, Death & Robots / Сезон: 3 / Серии: 1-9 из 9 (Эмили Дин, Дэвид Финчер, Энди Лион) [2022, Фантастика, фэнтези, комедия, боевик, криминал, ужасы, WEB-DL-HEVC 1080p] 2xMVO [HDRezka, LostFilm]

Любовь, смерть и роботы через торрент pb.wtf

Размер: 5.82 GB | Добавлен: 8 мес. назад | Торрент скачан:404 раза
Смотреть онлайн | Скачать | Поддержите нас   

22-05-2022 16:08 Любовь, смерть и роботы Скачать торрент  

Любовь, смерть и роботы | Love, Death & Robots
«The threesome you've been waiting for»
Год выпуска: 2022
Страна: США
Жанр: мультфильм, ужасы, фантастика, фэнтези, комедия, боевик, криминал
Продолжительность: ~00:11:00-00:17:00 серия
Перевод:
Профессиональный (многоголосый закадровый) | HDRezka
Профессиональный (многоголосый закадровый) | LostFilm | Серия :1
Субтитры: Русские (Forced |HDRezka|, Full |Netflix|), Украинские, Английские (Forced, Full, SDH), Иврит

Режиссер: Эмили Дин, Дэвид Финчер, Энди Лион, Патрик Осборн

rating

В ролях: Скотт Уайт (Scott Whyte), Нолан Норт (Nolan North), Стивен Пэйси (Steven Pacey), Эмили О’Брайэн (Emily O'Brien), Фред Таташиор (Fred Tatasciore), Мэттью Кинг (Matthew Yang King), Мишель Бонилла (Michelle C. Bonilla), Крис Кокс (Chris Cox), Айк Амади (Ike Amadi), Ношир Далаль (Noshir Dalal), Петр Вальчук (Piotr Walczuk), Мэри Элизабет Уинстэд (Mary Elizabeth Winstead)

Описание: Проект "Любовь, смерть и роботы" - это отдельный вид искусства. Сериал представляет собой великолепную смесь историй, представленных в совершенно различных жанрах. Здесь вас ожидает столкновение с классическими элементами научной фантастики, необычным юмором, удивительным фэнтезийным миром и по-настоящему пробирающим до мурашек ужасом. Каждый из персонажей в проекте покажется вам странным, как минимум. Здесь происходит настоящий вынос мозга, к которому никак не привыкнуть и не подготовиться. Если вы готовы смотреть историю, где в центре внимания оказываются молочные продукты, неожиданно ожившие после загадочных обстоятельств, безумные роботы, стремящиеся захватить мир и солдаты, способные обращаться в животных, то добро пожаловать к экранам! Перед вами потрясающая история, которая обязательно придётся по душе всем поклонникам безумств и абсурда!

Качество: WEB-DL-HEVC 1080p
Формат: MKV

Видео: HEVC HDR, 1920x1080 (16:9), 24,000 кадра/сек, ~ 4922 Кбит/сек, 0.099 bit/pixel
Аудио Rus: AC3, 48 kHz, 3/2 (L,C,R,l,r) + LFE ch, 448 Кбит/сек | HDRezka
Аудио Rus: AC3, 48,0 kHz, 2 ch, 384 Кбит/сек | LostFilm | Серии :1-5
Аудио Eng: E-AC-3 JOC, 48 kHz, 3/2 (L R C LFE Ls Rs), 768 Кбит/сек

Общее
Уникальный идентификатор : 57632039425223882906047694655503588472 (0x2B5B86ECA6C4EEB5BE118F9CE921DC78)
Полное имя : D:\Love, Death & Robots (Season 3) HDR WEB-DL 1080p\Love.Death.&.Robots.S03E01.1080p.WEB-DL.HDR.RGzsRutracker.mkv
Формат : Matroska
Версия формата : Version 4
Размер файла : 487 Мбайт
Продолжительность : 11 м. 26 с.
Общий поток : 5 954 Кбит/сек
Название фильма : Love, Death & Robots 03x01 - Release by Wentworth_Miller
Дата кодирования : UTC 2022-05-22 13:17:48
Программа кодирования : mkvmerge v67.0.0 ('Under Stars') 64-bit
Библиотека кодирования : libebml v1.4.2 + libmatroska v1.6.4

Видео
Идентификатор : 1
Формат : HEVC
Формат/Информация : High Efficiency Video Coding
Профиль формата : Main [email protected]@Main
HDR format : SMPTE ST 2086, HDR10 compatible
Идентификатор кодека : V_MPEGH/ISO/HEVC
Продолжительность : 10 м. 19 с.
Битрейт : 4 922 Кбит/сек
Ширина : 1 920 пикселей
Высота : 1 080 пикселей
Соотношение сторон : 16:9
Режим частоты кадров : Постоянный
Частота кадров : 24,000 кадра/сек
Цветовое пространство : YUV
Субдискретизация насыщенности : 4:2:0 (Type 2)
Битовая глубина : 10 бит
Бит/(Пиксели*Кадры) : 0.099
Размер потока : 364 Мбайт (75%)
Язык : English
Default : Да
Forced : Нет
Цветовой диапазон : Limited
Основные цвета : BT.2020
Характеристики трансфера : PQ
Коэффициенты матрицы : BT.2020 non-constant
Mastering display color primaries : Display P3
Mastering display luminance : min: 0.0001 cd/m2, max: 1000 cd/m2
Maximum Content Light Level : 725 cd/m2
Maximum Frame-Average Light Level : 133 cd/m2

Аудио #1
Идентификатор : 2
Формат : AC-3
Формат/Информация : Audio Coding 3
Коммерческое название : Dolby Digital
Идентификатор кодека : A_AC3
Продолжительность : 11 м. 26 с.
Вид битрейта : Постоянный
Битрейт : 448 Кбит/сек
Каналы : 6 каналов
Channel layout : L R C LFE Ls Rs
Частота : 48,0 КГц
Частота кадров : 31,250 кадров/сек (1536 SPF)
Метод сжатия : С потерями
Размер потока : 36,7 Мбайт (8%)
Заголовок : HDRezka
Язык : Russian
Service kind : Complete Main
Default : Да
Forced : Нет

Аудио #2
Идентификатор : 3
Формат : AC-3
Формат/Информация : Audio Coding 3
Коммерческое название : Dolby Digital
Идентификатор кодека : A_AC3
Продолжительность : 10 м. 19 с.
Вид битрейта : Постоянный
Битрейт : 384 Кбит/сек
Каналы : 2 канала
Channel layout : L R
Частота : 48,0 КГц
Частота кадров : 31,250 кадров/сек (1536 SPF)
Метод сжатия : С потерями
Размер потока : 28,4 Мбайт (6%)
Заголовок : LostFilm
Язык : Russian
Service kind : Complete Main
Default : Нет
Forced : Нет

Аудио #3
Идентификатор : 4
Формат : E-AC-3 JOC
Формат/Информация : Enhanced AC-3 with Joint Object Coding
Коммерческое название : Dolby Digital Plus with Dolby Atmos
Идентификатор кодека : A_EAC3
Продолжительность : 10 м. 40 с.
Вид битрейта : Постоянный
Битрейт : 768 Кбит/сек
Каналы : 6 каналов
Channel layout : L R C LFE Ls Rs
Частота : 48,0 КГц
Частота кадров : 31,250 кадров/сек (1536 SPF)
Метод сжатия : С потерями
Размер потока : 58,6 Мбайт (12%)
Язык : English
Service kind : Complete Main
Default : Нет
Forced : Нет
Complexity index : 16
Number of dynamic objects : 15
Bed channel count : 1 канал
Bed channel configuration : LFE

Текст #1
Идентификатор : 5
Формат : UTF-8
Идентификатор кодека : S_TEXT/UTF8
Идентификатор кодека/Информация : UTF-8 Plain Text
Продолжительность : 6 м. 55 с.
Битрейт : 3 бит/сек
Count of elements : 3
Размер потока : 162 байт (0%)
Заголовок : Forced
Язык : Russian
Default : Да
Forced : Нет

Текст #2
Идентификатор : 6
Формат : UTF-8
Идентификатор кодека : S_TEXT/UTF8
Идентификатор кодека/Информация : UTF-8 Plain Text
Продолжительность : 9 м. 59 с.
Битрейт : 119 бит/сек
Count of elements : 166
Размер потока : 8,72 Кбайт (0%)
Заголовок : Russian
Язык : Russian
Default : Нет
Forced : Нет

Текст #3
Идентификатор : 7
Формат : UTF-8
Идентификатор кодека : S_TEXT/UTF8
Идентификатор кодека/Информация : UTF-8 Plain Text
Продолжительность : 9 м. 59 с.
Битрейт : 122 бит/сек
Count of elements : 135
Размер потока : 8,96 Кбайт (0%)
Заголовок : Ukrainian
Язык : Ukrainian
Default : Нет
Forced : Нет

Текст #4
Идентификатор : 8
Формат : UTF-8
Идентификатор кодека : S_TEXT/UTF8
Идентификатор кодека/Информация : UTF-8 Plain Text
Продолжительность : 8 м. 10 с.
Битрейт : 94 бит/сек
Count of elements : 143
Размер потока : 5,69 Кбайт (0%)
Заголовок : Full
Язык : English
Default : Нет
Forced : Нет

Текст #5
Идентификатор : 9
Формат : UTF-8
Идентификатор кодека : S_TEXT/UTF8
Идентификатор кодека/Информация : UTF-8 Plain Text
Продолжительность : 9 м. 57 с.
Битрейт : 93 бит/сек
Count of elements : 182
Размер потока : 6,80 Кбайт (0%)
Заголовок : SDH
Язык : English
Default : Нет
Forced : Нет

Текст #6
Идентификатор : 10
Формат : UTF-8
Идентификатор кодека : S_TEXT/UTF8
Идентификатор кодека/Информация : UTF-8 Plain Text
Продолжительность : 9 м. 59 с.
Битрейт : 116 бит/сек
Count of elements : 138
Размер потока : 8,54 Кбайт (0%)
Заголовок : Hebrew
Язык : Hebrew
Default : Нет
Forced : Нет

Внимание! Раздача ведётся путём добавления новых серий; при каждом добавлении создаётся новый торрент.
Чтобы начать докачку новой серии, пользователям необходимо сделать следующее:
1. Остановить скачивание;
2. Удалить старый торрент у себя из клиента (старые серии удалять не надо);
3. Скачать новый торрент и запустить его у себя в клиенте вместо старого, при этом указать клиенту путь в старую папку куда и должно происходить скачивание новых серий. Ваш клиент при этом должен произвести хеширование (проверку) старой папки и будет докачивать только те серии, которых у вас ещё нет. Старые серии при этом не удаляются, а продолжают раздаваться! Eсли вы уже удалили старые серии, то предотвратить повторную закачку старых серий можно, отжав галочку в соответствующих местах при запуске нового торрента.

Kbober100 писал(а):


+6 LostFilm



Скачать Любовь, смерть и роботы через торрент https://i117.fastpic.org/big/2022/0520/af/56d548706757416faa162baaca604faf.jpg Скачать, смотреть онлайн Любовь, смерть и роботы бесплантно в хорошем качестве Описание: Проект "Любовь, смерть и роботы" - это отдельный вид искусства. Сериал представляет собой великолепную смесь историй, ... 10 10 24
Info! Золотая раздача, скачанное не засчитывается.
Торрент: Зарегистрирован [2022-06-01 02:42] · скачан: 404 раз
Статус: √ проверено
Размер: 5.82 GB
Как cкачать? Как скачать Любовь, смерть и роботы через торрент | UTorrent




Последний раз редактировалось: bober100 (2022-06-01 02:42), всего редактировалось 3 раз(а)

28-11-2019 20:33  


Отключить вcю реклaмy на сайте, в т.ч. и в плеере онлайн просмотра!

22-05-2022 17:44 Любовь, смерть и роботы Скачать торрент  

спасибо! очень ждал!



23-05-2022 06:40 Любовь, смерть и роботы Скачать торрент  

Замечательно. Из прошлых серия с Гитлером улыбнула.



    Дорогой пользователь! Огромная просьба, поблагодарите релизера, оцените раздачу и оставьте свои комментарий, если Вы скачали Любовь, смерть и роботы через торрент бесплатно!!
    Комментировать посты могут только пользователи прошедшие не сложную регистрацию
    Показать сообщения:    


    Любовь, смерть и роботы через торрент
    Скачать бесплатно Любовь, смерть и роботы
    Любовь, смерть и роботы скачать торрент
    Любовь, смерть и роботы смотреть онлайн
    Cкачать фильм Любовь, смерть и роботы бесплатно
    Любовь, смерть и роботы скачать торрент в хорошем качестве
    Любовь, смерть и роботы смотреть онлайн бесплатно в хорошем качестве
    Вы не можете начинать темы
    Вы не можете отвечать на сообщения
    Вы не можете редактировать свои сообщения
    Вы не можете удалять свои сообщения
    Вы не можете голосовать в опросах
    Вы не можете прикреплять файлы к сообщениям
    Вы можете скачивать файлы
    Любовь, смерть и роботы / Love, Death & Robots / Сезон: 3 / Серии: 1-9 из 9 [2022, Фантастика, фэнтези, комедия, боевик, криминал, ужасы, WEB-DL-HEVC 1080p] 2xMVO [HDRezka, LostFilm] смотреть онлайн, скачать торрент picoco.icu