Всегда рабочее зеркало без VPN и Proxy просто перед .vidak.icu напиши любое слово или цифру, Пример http://1uq3.vidak.icu

MVO

Лицензия

1 сезон

1

1 сезон

iTunes

1 сезон

13

1 сезон

Deluxe

pack

Рекомендуем

Пиратка

30

ВАЖНО

RePack

MK11

RePack

jed

RePack

fifa19

RePack

RDR2

RePack

NEED FOR SPEED™ PAYBACK

Кинопоиск HD

6 сезон

 Острые козырьки 6 сезон

Все сериалы

все сериалы на PB.wtf

RePack

FAR CRY 5

Anonymous, нам критически не хватает 2100 руб. на оплату серверов и переферии за МАЙ, помоги нам пожалуйста, вся надежда только на тебя. В благодарность мы отключим тебе всю рекламу на сайте!

×
  
Magnet ссылка

Хало / Halo / Сезон: 1 / Серии: 1-9 из 9 (Отто Батхёрст, Джонатан Либесман, Роэль Рейн) [2022, WEB-DLRip - HEVC 1080p 10 bit 60 FPS, MVO] pb.wtf

Хало через торрент pb.wtf

Раздают: 2 [ 0 KB/s ]
Размер: 11.95 GB | Добавлен: 16 д. назад | Торрент скачан:5 раз
Смотреть онлайн Хало | Скачать    Ребята, помогите собрать деньги на оплату серверов!!!

23-05-2022 13:45 Хало Скачать торрент  

Halo

Год выпуска: 2022
Страна: США
Жанр: фантастика, боевик
Продолжительность: 9 x ~ 00:55:00 серия
Перевод: Профессиональный (многоголосый, закадровый) | AlexFilm
Субтитры: русские | LostFilm
Режиссер: Отто Батхёрст, Джонатан Либесман, Роэль Рейн
В ролях: Пабло Шрайбер, Наташа МакЭлхоун, Yerin Ha, Боким Вудбайн, Джен Тейлор, Шабана Азми, Оливия Грант, Чарли Мерфи, Кейт Кеннеди, Бентли Калу
Описание:
В XXVI веке между земными силами Космического командования Объединённых наций и религиозным союзом нескольких инопланетных рас идёт ожесточённая война. Люди изо всех сил борются за выживание, но всё же сдают позиции на всех фронтах. Последней надеждой становится проект SPARTAN-II — программа создания усиленных людей, которые должны стать самым эффективным оружием в борьбе с пришельцами.

Противники находят и уничтожают планету вместе со спартанцами. Спастись удаётся всего одному кораблю — «Столпу осени», на котором находится последний выживший спартанец Джон-117. Именно ему предстоит изменить ход войны, когда он оказывается на загадочном инопланетном артефакте Halo — мире-кольце.
Мировая премьера: 14 марта 2022

Качество: WEB-DLRip 1080p Rip by DD2D3
Формат: MKV
Видео: V_MPEGH/ISO/HEVC; 1920x960 (2.000); 3272 Kbps; 60 fps; 0,030 bpp
Аудио: русский; AC3; 384 Kbps; CBR; 6 ch ||
Навигация по главам: есть

Общее
Уникальный идентификатор : 213214889415786707082062974354970277885 (0xA067B1AABCF8815FBE61E351B5DE77FD)
Полное имя : E:\Halo (2022) WEB-DLRip - HEVC 1080p 10 bit 60 FPS\Season 1. Series 1 - 9 of 9.mkv
Формат : Matroska
Версия формата : Version 2
Размер файла : 1,54 Гбайт
Продолжительность : 58 м. 56 с.
Общий поток : 3 730 Кбит/сек
Название фильма : Rip by from DD2D3 / Halo - S01E01 - Contact
Дата кодирования : UTC 2022-05-06 08:21:48
Программа кодирования : mkvmerge v6.9.1 ('Blue Panther') 32bit built on Apr 18 2014 18:15:44
Библиотека кодирования : libebml v1.3.0 + libmatroska v1.4.1
Attachments : poster
IMDB : tt2934286
TMDB : tv/52814
TVDB : 366524

Видео
Идентификатор : 1
Формат : HEVC
Формат/Информация : High Efficiency Video Coding
Профиль формата : Main 10@L4.1@Main
Идентификатор кодека : V_MPEGH/ISO/HEVC
Продолжительность : 58 м. 56 с.
Битрейт : 3 272 Кбит/сек
Ширина : 1 920 пикселей
Высота : 960 пикселей
Соотношение сторон : 2,000
Режим частоты кадров : Постоянный
Частота кадров : 60,000 кадров/сек
Цветовое пространство : YUV
Субдискретизация насыщенности : 4:2:0
Битовая глубина : 10 бит
Бит/(Пиксели*Кадры) : 0.030
Размер потока : 1,35 Гбайт (88%)
Default : Да
Forced : Нет

Аудио
Идентификатор : 2
Формат : AC-3
Формат/Информация : Audio Coding 3
Коммерческое название : Dolby Digital
Идентификатор кодека : A_AC3
Продолжительность : 58 м. 56 с.
Вид битрейта : Постоянный
Битрейт : 384 Кбит/сек
Каналы : 6 каналов
Channel layout : L R C LFE Ls Rs
Частота : 48,0 КГц
Частота кадров : 31,250 кадров/сек (1536 SPF)
Метод сжатия : С потерями
Размер потока : 162 Мбайт (10%)
Заголовок : AlexFilm
Язык : Russian
Service kind : Complete Main
Default : Нет
Forced : Нет
Statistics Tags Issue : mkvmerge v66.0.0 ('Josie') 64-bit 2022-04-08 19:28:39 / mkvmerge v6.9.1 ('Blue Panther') 32bit built on Apr 18 2014 18:15:44 2022-05-06 08:21:48
FromStats_BitRate : 384000
FromStats_Duration : 00:58:56.800000000
FromStats_FrameCount : 110525
FromStats_StreamSize : 169766400

Текст
Идентификатор : 3
Формат : UTF-8
Идентификатор кодека : S_TEXT/UTF8
Идентификатор кодека/Информация : UTF-8 Plain Text
Заголовок : Rus
Язык : Russian
Default : Нет
Forced : Нет
Statistics Tags Issue : mkvmerge v66.0.0 ('Josie') 64-bit 2022-04-08 19:28:39 / mkvmerge v6.9.1 ('Blue Panther') 32bit built on Apr 18 2014 18:15:44 2022-05-06 08:21:48
FromStats_BitRate : 82
FromStats_Duration : 00:55:31.228000000
FromStats_FrameCount : 655
FromStats_StreamSize : 34201

Меню
00:58:51.000 : en:Credits

© Оформление by DD2D3

pb.wtf



Скачать Хало через торрент https://i120.fastpic.org/big/2022/0523/8d/6aa059c5f1552ee7d5152828de1f5f8d.jpg Скачать, смотреть онлайн Хало бесплантно в хорошем качестве Описание: В XXVI веке между земными силами Космического командования Объединённых наций и религиозным союзом нескольких инопланетных рас ... 10 10 3
Торрент: Зарегистрирован [2022-06-09 17:06] · скачан: 5 раз
Статус: √ проверено
Размер: 11.95 GB
Как cкачать? Как скачать Хало через торрент | UTorrent

% Раздел Тема Автор DL S | L
Зарубежные сериалы [ 6.7 GB ] Хало / Halo / Сезон: 1 / Серии: 1-9 из 9 [2022 WEB-DLRip] MVO [AlexFilm] bober100 Скачать
3 | 1
Зарубежные сериалы [ 29.76 GB ] Хало / Halo / Сезон: 1 / Серии: 1-9 из 9 [2022 WEB-DL 1080p] MVO [AlexFilm] bober100 Скачать
3 | 2
Зарубежные сериалы [ 27.56 GB ] Хало / Halo / Сезон: 1 / Серии: 1-9 из 9 [2022 WEB-DL 1080p] MVO [NewComers] bober100 Скачать
1 | 1
Зарубежные сериалы [ 13.4 GB ] Хало / Halo / Сезон: 1 / Серии: 1-9 из 9 [2022 WEB-DL 720p] MVO [LostFilm] bober100 Скачать
8 | 1
T Зарубежные сериалы [ 5.09 GB ] Хало / Halo / Сезон: 1 / Серии: 1-9 из 9 [2022 WEBRip] MVO [ColdFilm] bober100 Скачать
1 | 4
Зарубежные сериалы [ 28.95 GB ] Хало / Halo / Сезон: 1 / Серия: 1-9 из 9 [2022 WEB-DL 1080p] 2 x MVO GEKADOL Скачать
5 | 3
Зарубежные сериалы [ 842 MB ] Хало / Halo / Сезон: 1 / Серии: 1- из 9 [2022 WEB-DLRip] MVO [LostFilm] bober100 Скачать
1 | 0


Последний раз редактировалось: dd2d3 (2022-06-09 17:06), всего редактировалось 1 раз

28-11-2019 20:33  

Отключить всю рекламу на сайте

29-05-2022 21:42 Хало Скачать торрент  

Неплохой сериал, лучше Ведьмака) Спасибо)pb.wtf



08-06-2022 12:20 Хало Скачать торрент  

Эм... вместо 8 серии качает серию Локи, прошу исправить.pb.wtf



08-06-2022 14:59 Хало Скачать торрент  

Там фрагмент, локи попал, наверно из-за косяка при создании торрента, жесткий умирает потиху. Через 2 дня исправлю всеpb.wtf



09-06-2022 15:57 Хало Скачать торрент  

Спасибо) И если будет возможность добавить к Лунному рыцарю дополнительную дорожку Red Head...pb.wtf



09-06-2022 17:10 Хало Скачать торрент  

Исправил 8 сериюpb.wtf



09-06-2022 21:03 Хало Скачать торрент  

Спасибо))pb.wtf



    Дорогой пользователь! Огромная просьба, поблагодарите релизера, оцените раздачу и оставьте свои комментарий, если Вы скачали Хало через торрент бесплатно!
    Комментировать посты могут только пользователи прошедшие не сложную регистрацию
    Показать сообщения:    

    Хало через торрент
    Скачать бесплатно Хало
    Хало скачать торрент
    Хало смотреть онлайн
    Cкачать фильм Хало бесплатно
    Хало скачать торрент в хорошем качестве
    Хало смотреть онлайн бесплатно в хорошем качестве


    Вы не можете начинать темы
    Вы не можете отвечать на сообщения
    Вы не можете редактировать свои сообщения
    Вы не можете удалять свои сообщения
    Вы не можете голосовать в опросах
    Вы не можете прикреплять файлы к сообщениям
    Вы можете скачивать файлы