Всегда рабочее зеркало без VPN и Proxy просто перед .vidak.icu напиши любое слово или цифру, Пример http://la71.vidak.icu

Лицензия

MVO

1 сезон

1

1 сезон

iTunes

1 сезон

13

1 сезон

Deluxe

pack

Рекомендуем

Repack

30

ВАЖНО

RePack

MK11

RePack

jed

RePack

fifa19

RePack

RDR2

RePack

NEED FOR SPEED™ PAYBACK

Кинопоиск HD

6 сезон

 Острые козырьки 6 сезон

Все сериалы

все сериалы на PB.wtf

RePack

FAR CRY 5
  
Magnet ссылка

ЮЗЗЗ / Сезон: 1 / Серии: 1-8 из 8 (Стас Иванов) [2022, Драма, криминал, WEBRip 1080p] pb.wtf

ЮЗЗЗ через торрент pb.wtf

Раздают: 19 [ 535 KB/s ] Качают: 7 [ 0 KB/s ]
Размер: 11.85 GB | Добавлен: 2 мес. 1 д. назад | Торрент скачан:558 раз
Смотреть онлайн ЮЗЗЗ | Скачать    Ребята, помогите собрать деньги на оплату серверов!!!

23-05-2022 21:46 ЮЗЗЗ Скачать торрент  

ЮЗЗЗ
Год выпуска: 2022
Страна: Россия
Жанр: Драма, криминал
Продолжительность: ~ 00:47:00 серия
Перевод: Не требуется
Субтитры: отсутствуют

Режиссер: Стас Иванов



В ролях: Антон Кузнецов, Кузьма Котрелев, Мария Машкова, Маша Мацель, Дмитрий Чеботарёв, Гела Месхи, Полина Айнутдинова, Виталия Корниенко, Тимур Абитов, Таша Цветкова

Описание: Ростов-на-Дону, наши дни. В одном из рабочих спальных районов на юго-западе города, окрещённого жителями "ЮЗ" кипит жизнь – местная группировка молодых парней то и дело меряется силой с ровесниками из "блатного" центра, ну а взрослые "хозяева" районов ворочают делами посерьезнее. Равиль – молодой программист, живущий на ЮЗе. Окончив техникум, парень мечтает уехать в США и там заниматься любимым делом. В ожидании гранта, Равиль подрабатывает курьером. Однако, молодого романтика манит соблазн быстрых криминальных денег. Чтобы осуществить заветную мечту о другой жизни и завоевать сердце юной красотки Эли из района богачей, Равиль ступает на скользкий путь.

Качество: WEBRip 1080p
Формат: MKV

Видео: MPEG-4 AVC, 1920x960, ~ 4500 Кбит/с, 0.097 bit/pixel, 25 Кадр/с
Аудио: 48.0 kHz, AC3 Dolby Digital, 2/0 (L,R) ch, ~ 192 kbps
скриншот  скриншот  скриншот  скриншот  

Общее
Уникальный идентификатор : 311618814396692671750170185038419940020 (0xEA6F99C024587BBDE34B2C54897352B4)
Полное имя : D:\Yuzzz.2022.WEB-DL.1080.25Kuzmich\Yuzzz.e01.WEB-DL.1080.25Kuzmich.mkv
Формат : Matroska
Версия формата : Version 4
Размер файла : 1,33 Гбайт
Продолжительность : 40 м. 54 с.
Режим общего битрейта : Переменный
Общий поток : 4 641 Кбит/сек
Дата кодирования : UTC 2022-05-23 21:25:23
Программа кодирования : mkvmerge v51.0.0 ('I Wish') 64-bit
Библиотека кодирования : libebml v1.4.0 + libmatroska v1.6.2

Видео
Идентификатор : 1
Формат : AVC
Формат/Информация : Advanced Video Codec
Профиль формата : [email protected]
Настройки формата : CABAC / 2 Ref Frames
Параметр CABAC формата : Да
Параметр RefFrames формата : 2 кадра
Идентификатор кодека : V_MPEG4/ISO/AVC
Продолжительность : 40 м. 54 с.
Вид битрейта : Переменный
Битрейт : 4 447 Кбит/сек
Максимальный битрейт : 4 500 Кбит/сек
Ширина : 1 920 пикселей
Высота : 960 пикселей
Соотношение сторон : 2,000
Режим частоты кадров : Постоянный
Частота кадров : 25,000 кадров/сек
Цветовое пространство : YUV
Субдискретизация насыщенности : 4:2:0
Битовая глубина : 8 бит
Тип развёртки : Прогрессивная
Бит/(Пиксели*Кадры) : 0.097
Размер потока : 1,27 Гбайт (96%)
Default : Да
Forced : Нет
Цветовой диапазон : Limited
Основные цвета : BT.709
Характеристики трансфера : BT.709

Аудио
Идентификатор : 2
Формат : AC-3
Формат/Информация : Audio Coding 3
Коммерческое название : Dolby Digital
Идентификатор кодека : A_AC3
Продолжительность : 40 м. 54 с.
Вид битрейта : Постоянный
Битрейт : 192 Кбит/сек
Каналы : 2 канала
Channel layout : L R
Частота : 48,0 КГц
Частота кадров : 31,250 кадров/сек (1536 SPF)
Метод сжатия : С потерями
Размер потока : 56,2 Мбайт (4%)
Язык : Russian
Service kind : Complete Main
Default : Да
Forced : Нет

Внимание! Раздача ведётся путём добавления новых серий; при каждом добавлении создаётся новый торрент.
Чтобы начать докачку новой серии, пользователям необходимо сделать следующее:
1. Остановить скачивание;
2. Удалить старый торрент у себя из клиента (старые серии удалять не надо);
3. Скачать новый торрент и запустить его у себя в клиенте вместо старого, при этом указать клиенту путь в старую папку куда и должно происходить скачивание новых серий. Ваш клиент при этом должен произвести хеширование (проверку) старой папки и будет докачивать только те серии, которых у вас ещё нет. Старые серии при этом не удаляются, а продолжают раздаваться! Eсли вы уже удалили старые серии, то предотвратить повторную закачку старых серий можно, отжав галочку в соответствующих местах при запуске нового торрента.
pb.wtf



Скачать ЮЗЗЗ через торрент https://i120.fastpic.org/big/2022/0524/8f/87e1de84c9c3d4ea8cdaf55b0426018f.jpeg Скачать, смотреть онлайн ЮЗЗЗ бесплантно в хорошем качестве Описание: Ростов-на-Дону, наши дни. В одном из рабочих спальных районов на юго-западе города, окрещённого жителями "ЮЗ" кипит жизнь – ... 8.2 10 34
Info! Золотая раздача, скачанное не засчитывается.
Торрент: Зарегистрирован [2022-06-14 17:17] · скачан: 558 раз
Статус: √ проверено
Размер: 11.85 GB
Как cкачать? Как скачать ЮЗЗЗ через торрент | UTorrent

% Раздел Тема Автор DL S | L
TNT serials [ 4.7 GB ] ЮЗЗЗ / Сезон: 1 / Серии: 1-8 из 8 [2022 WEBRip] bober100 Скачать
11 | 0
TNT serials [ 4.57 GB ] ЮЗЗЗ / Сезон: 1 / Серии: 1-8 из 8 [2022 WEBRip-AVC] bober100 Скачать
4 | 0
TNT serials [ 8.05 GB ] ЮЗЗЗ / Сезон: 1 / Серии: 1-8 из 8 [2022 WEBRip 720p] bober100 Скачать
4 | 1


Последний раз редактировалось: bober100 (2022-06-14 17:17), всего редактировалось 7 раз(а)

28-11-2019 20:33  

Отключить вcю реклaмy на сайте

24-05-2022 08:39 ЮЗЗЗ Скачать торрент  

саундтрек Марк Котляр писал? )))pb.wtf



10-06-2022 17:54 ЮЗЗЗ Скачать торрент  

хороший фильмpb.wtf



14-06-2022 20:45 ЮЗЗЗ Скачать торрент  

охуенный сериал, зайдет каждому!!!pb.wtf



16-06-2022 16:04 ЮЗЗЗ Скачать торрент  

да, нормальныйpb.wtf



14-07-2022 11:52 ЮЗЗЗ Скачать торрент  

огогогонь...спасибо PIRATBIT///////////pb.wtf



17-07-2022 17:14 ЮЗЗЗ Скачать торрент  

мммм сборище лохов)pb.wtf



20-07-2022 19:17 ЮЗЗЗ Скачать торрент  

до 5 серии смотрибельно..дальше треш.pb.wtf



21-07-2022 01:53 ЮЗЗЗ Скачать торрент  

сериал пропаганда наркотиков и торговли имиpb.wtf



28-07-2022 06:44 ЮЗЗЗ Скачать торрент  

хороший рф - овский сериал...достойный внимания ...pb.wtf



    Дорогой пользователь! Огромная просьба, поблагодарите релизера, оцените раздачу и оставьте свои комментарий, если Вы скачали ЮЗЗЗ через торрент бесплатно!
    Комментировать посты могут только пользователи прошедшие не сложную регистрацию
    Показать сообщения:    

    ЮЗЗЗ через торрент
    Скачать бесплатно ЮЗЗЗ
    ЮЗЗЗ скачать торрент
    ЮЗЗЗ смотреть онлайн
    Cкачать фильм ЮЗЗЗ бесплатно
    ЮЗЗЗ скачать торрент в хорошем качестве
    ЮЗЗЗ смотреть онлайн бесплатно в хорошем качестве


    Вы не можете начинать темы
    Вы не можете отвечать на сообщения
    Вы не можете редактировать свои сообщения
    Вы не можете удалять свои сообщения
    Вы не можете голосовать в опросах
    Вы не можете прикреплять файлы к сообщениям
    Вы можете скачивать файлы