Всегда рабочее зеркало без VPN и Proxy просто перед .vidak.icu напиши любое слово или цифру, Пример http://d8hf.vidak.icu

MVO

Лицензия

1 сезон

1

1 сезон

iTunes

1 сезон

13

1 сезон

Deluxe

pack

Рекомендуем

Пиратка

30

ВАЖНО

RePack

MK11

RePack

jed

RePack

fifa19

RePack

RDR2

RePack

NEED FOR SPEED™ PAYBACK

Кинопоиск HD

6 сезон

 Острые козырьки 6 сезон

Все сериалы

все сериалы на PB.wtf

RePack

FAR CRY 5

Anonymous, нам критически не хватает 2100 руб. на оплату серверов и переферии за МАЙ, помоги нам пожалуйста, вся надежда только на тебя. В благодарность мы отключим тебе всю рекламу на сайте!

×
  
Magnet ссылка

Стражи терракоты / Yong zhi cheng / Realm of Terracotta (Дин Лян, Линь Юнчан) [2021 г., мультфильм, боевик, фэнтези, WEB-DLRip 720p / 60 FPS, Дубляж [IVI]] от R.G. HD-Films pb.wtf

Стражи терракоты через торрент pb.wtf

Раздают: 20 [ 252 KB/s ]
Размер: 3.71 GB | Добавлен: 1 мес. 4 д. назад | Торрент скачан:221 раз
Смотреть онлайн Стражи терракоты | Скачать    Ребята, помогите собрать деньги на оплату серверов!!!

24-05-2022 12:16 Стражи терракоты Скачать торрент  

Стражи терракоты / Yong zhi cheng / Realm of Terracotta
Год выпуска: 2021
Страна: Китай
Жанр: мультфильм, боевик, фэнтези
Продолжительность: 01:49:05
Перевод: Дубляж [IVI]

Режиссер: Дин Лян, Линь Юнчан

Премьера в мире: 20 июня 2021

rating

В ролях: Цзыю Чжоу, Сяо Тан, Чжу Гуанцзу, Минг Чжан, Пэй Лю, Дин Лян, Лю Бэй

Описание: Стражи волшебной Терракоты и магические существа Ониксы на протяжении многих столетий ведут войны друг с другом в подземном царстве. Молодой человек Магнус мечтает стать терракотовым воином, а для этого ему необходимо поймать одного из Ониксов. Магнус отправляется на поиски таинственного создания и встречает молодую девушку Джейд, которая также ищет Оникса. Герои влюбляются и объединяются, чтобы узнать настоящую причину вторжения монстров…

Качество: WEB-DLRip 720p / 60 FPS
Формат: MKV
Видео кодек: H.264
Аудио кодек: AC3
Видео: x264, 1280 x 536 ( 2,40:1 ), 4475 kbps, 60,000 fps, ( 0.109 bpp)
Аудио#1: Русский, AC-3, 48.0 KHz, 6 ch, 384 Kbps DUB ( IVI )
Релиз от: Автор рипа: slaventi-69
x264 [info]: profile High, level 4.1
x264 [info]: frame I:1887 Avg QP:14.72 size: 66549
x264 [info]: frame P:91562 Avg QP:16.23 size: 20353
x264 [info]: frame B:299267 Avg QP:18.97 size: 5586
x264 [info]: consecutive B-frames: 1.9% 3.1% 8.4% 18.7% 46.3% 21.6%


Общее
Уникальный идентификатор : 40910709784972334896761277555608509682 (0x1EC71DB8DE088F20B2E4F96EA445DCF2)
Полное имя : G:\60 FPS\Realm.of.Terracotta.(2021).WEB-DLRip.720p.(60 Fps).mkv
Формат : Matroska
Версия формата : Version 4
Размер файла : 3,71 Гбайт
Продолжительность : 1 ч. 49 м.
Общий поток : 4862 Кбит/сек
Название фильма : Стражи терракоты / Yong zhi cheng / Realm of Terracotta (2021) WEB-DLRip 720p (60 Fps)
Дата кодирования : UTC 2022-05-18 08:47:15
Программа кодирования : mkvmerge v25.0.0 ('Prog Noir') 64-bit
Библиотека кодирования : libebml v1.3.6 + libmatroska v1.4.9

Видео
Идентификатор : 1
Формат : AVC
Формат/Информация : Advanced Video Codec
Профиль формата : High@L4.1
Настройки формата : CABAC / 9 Ref Frames
Параметр CABAC формата : Да
Параметр RefFrames формата : 9 кадров
Идентификатор кодека : V_MPEG4/ISO/AVC
Продолжительность : 1 ч. 49 м.
Битрейт : 4475 Кбит/сек
Ширина : 1280 пикселей
Высота : 536 пикселей
Соотношение сторон : 2,40:1
Режим частоты кадров : Постоянный
Частота кадров : 60,000 кадров/сек
Цветовое пространство : YUV
Субдискретизация насыщенности : 4:2:0
Битовая глубина : 8 бит
Тип развёртки : Прогрессивная
Бит/(Пиксели*Кадры) : 0.109
Размер потока : 3,41 Гбайт (92%)
Заголовок : slaventi-69 ( R.G. HD-Films | 60 fps )
Библиотека кодирования : x264 core 130 r2273 b3065e6
Настройки программы : cabac=1 / ref=9 / deblock=1:-2:-2 / analyse=0x3:0x133 / me=umh / subme=9 / psy=1 / psy_rd=1.00:0.00 / mixed_ref=1 / me_range=32 / chroma_me=1 / trellis=2 / 8x8dct=1 / cqm=0 / deadzone=21,11 / fast_pskip=0 / chroma_qp_offset=-2 / threads=6 / lookahead_threads=2 / sliced_threads=0 / nr=0 / decimate=1 / interlaced=0 / bluray_compat=0 / constrained_intra=0 / bframes=5 / b_pyramid=2 / b_adapt=2 / b_bias=0 / direct=1 / weightb=1 / open_gop=0 / weightp=2 / keyint=600 / keyint_min=23 / scenecut=40 / intra_refresh=0 / rc=crf / mbtree=0 / crf=16.8 / qcomp=0.60 / qpmin=0 / qpmax=69 / qpstep=4 / ip_ratio=1.40 / pb_ratio=1.30 / aq=1:1.00
Язык : Chinese
Default : Да
Forced : Нет

Аудио
Идентификатор : 2
Формат : AC-3
Формат/Информация : Audio Coding 3
Коммерческое название : Dolby Digital
Идентификатор кодека : A_AC3
Продолжительность : 1 ч. 49 м.
Вид битрейта : Постоянный
Битрейт : 384 Кбит/сек
Каналы : 6 каналов
Channel layout : L R C LFE Ls Rs
Частота : 48,0 КГц
Частота кадров : 31,250 кадров/сек (1536 SPF)
Битовая глубина : 16 бит
Метод сжатия : С потерями
Размер потока : 300 Мбайт (8%)
Заголовок : DUB ( IVI )
Язык : Russian
ServiceKind/String : Complete Main
Default : Да
Forced : Нет

Просьба к переливающим на другие сайты, в оформлении указывайте пожалуйста авторство группы R.G. HD-Films pb.wtf



Скачать Стражи терракоты через торрент https://i117.fastpic.org/big/2022/0523/88/5db661ebe2461a4ecd455779bba58b88.jpg Скачать, смотреть онлайн Стражи терракоты бесплантно в хорошем качестве Описание: Стражи волшебной Терракоты и магические существа Ониксы на протяжении многих столетий ведут войны друг с другом в подземном ... 10 10 7
Торрент: Зарегистрирован [2022-05-24 12:16] · скачан: 221 раз
Статус: √ проверено
Размер: 3.71 GB
Как cкачать? Как скачать Стражи терракоты через торрент | UTorrent

28-11-2019 20:33  

Отключить всю рекламу на сайте

27-05-2022 18:59 Стражи терракоты Скачать торрент  

Зачётный мульт.pb.wtf



    Дорогой пользователь! Огромная просьба, поблагодарите релизера, оцените раздачу и оставьте свои комментарий, если Вы скачали Стражи терракоты через торрент бесплатно!
    Комментировать посты могут только пользователи прошедшие не сложную регистрацию
    Показать сообщения:    

    Стражи терракоты через торрент
    Скачать бесплатно Стражи терракоты
    Стражи терракоты скачать торрент
    Стражи терракоты смотреть онлайн
    Cкачать фильм Стражи терракоты бесплатно
    Стражи терракоты скачать торрент в хорошем качестве
    Стражи терракоты смотреть онлайн бесплатно в хорошем качестве


    Вы не можете начинать темы
    Вы не можете отвечать на сообщения
    Вы не можете редактировать свои сообщения
    Вы не можете удалять свои сообщения
    Вы не можете голосовать в опросах
    Вы не можете прикреплять файлы к сообщениям
    Вы можете скачивать файлы