Всегда рабочее зеркало без VPN и Proxy просто перед .vidak.icu напиши любое слово или цифру, Пример http://v31j.vidak.icu

Лицензия

MVO

1 сезон

1

1 сезон

iTunes

1 сезон

13

1 сезон

Deluxe

pack

Рекомендуем

Repack

30

ВАЖНО

RePack

MK11

RePack

jed

RePack

fifa19

RePack

RDR2

RePack

NEED FOR SPEED™ PAYBACK

Кинопоиск HD

6 сезон

 Острые козырьки 6 сезон

Все сериалы

все сериалы на PB.wtf

RePack

FAR CRY 5
  
Magnet ссылка

ЮЗЗЗ / Сезон: 1 / Серии: 1-8 из 8 (Стас Иванов) [2022, Драма, криминал, WEBRip-AVC] pb.wtf

ЮЗЗЗ через торрент pb.wtf

Раздают: 3 [ 0 KB/s ]
Размер: 4.57 GB | Добавлен: 2 мес. 1 д. назад | Торрент скачан:153 раза
Смотреть онлайн ЮЗЗЗ | Скачать    Ребята, помогите собрать деньги на оплату серверов!!!

24-05-2022 16:10 ЮЗЗЗ Скачать торрент  

ЮЗЗЗ
Год выпуска: 2022
Страна: Россия
Жанр: Драма, криминал
Продолжительность: ~ 00:47:00 серия
Перевод: Не требуется
Субтитры: отсутствуют

Режиссер: Стас Иванов



В ролях: Антон Кузнецов, Кузьма Котрелев, Мария Машкова, Маша Мацель, Дмитрий Чеботарёв, Гела Месхи, Полина Айнутдинова, Виталия Корниенко, Тимур Абитов, Таша Цветкова

Описание: Ростов-на-Дону, наши дни. В одном из рабочих спальных районов на юго-западе города, окрещённого жителями "ЮЗ" кипит жизнь – местная группировка молодых парней то и дело меряется силой с ровесниками из "блатного" центра, ну а взрослые "хозяева" районов ворочают делами посерьезнее. Равиль – молодой программист, живущий на ЮЗе. Окончив техникум, парень мечтает уехать в США и там заниматься любимым делом. В ожидании гранта, Равиль подрабатывает курьером. Однако, молодого романтика манит соблазн быстрых криминальных денег. Чтобы осуществить заветную мечту о другой жизни и завоевать сердце юной красотки Эли из района богачей, Равиль ступает на скользкий путь.

Качество: WEBRip-AVC
Формат: MKV

Видео: MPEG-4 AVC, ~ 1600 Кбит/с, 1024x512, 25 кадр/с
Аудио: 48.0 kHz, AC3 Dolby Digital, 2/0 (L,R) ch, ~ 192 kbps
скриншот  скриншот  скриншот  скриншот  скриншот  

General
General
Unique ID : 210743804095260889061257051266450712074 (0x9E8BC7C117C92A1BBC53D87D6A4FE60A)
Complete name : F:\ЮЗЗЗ (Юго-Запад).(2022).WEBRip.(AVC).Files-x\01.ЮЗЗЗ (Юго-Запад).(2022).WEBRip.(AVC).by.Серый1779.Files-x.mkv
Format : Matroska
Format version : Version 2
File size : 525 MiB
Duration : 40 min 54 s
Overall bit rate : 1 794 kb/s
Encoded date : UTC 2022-05-24 01:51:33
Writing application : mkvmerge v7.8.0 ('River Man') 32bit built on Apr 3 2015 12:11:22
Writing library : libebml v1.3.1 + libmatroska v1.4.2

Video
ID : 1
Format : AVC
Format/Info : Advanced Video Codec
Format profile : [email protected]
Format settings : CABAC / 9 Ref Frames
Format settings, CABAC : Yes
Format settings, RefFrames : 9 frames
Codec ID : V_MPEG4/ISO/AVC
Duration : 40 min 54 s
Bit rate : 1 600 kb/s
Width : 1 024 pixels
Height : 512 pixels
Display aspect ratio : 2.000
Frame rate mode : Constant
Frame rate : 25.000 FPS
Color space : YUV
Chroma subsampling : 4:2:0
Bit depth : 8 bits
Scan type : Progressive
Bits/(Pixel*Frame) : 0.122
Stream size : 458 MiB (87%)
Writing library : x264 core 146 r2538 121396c
Encoding settings : cabac=1 / ref=9 / deblock=1:-2:-1 / analyse=0x3:0x133 / me=umh / subme=9 / psy=1 / psy_rd=1.00:0.15 / mixed_ref=1 / me_range=32 / chroma_me=1 / trellis=2 / 8x8dct=1 / cqm=0 / deadzone=21,11 / fast_pskip=0 / chroma_qp_offset=-3 / threads=18 / lookahead_threads=3 / sliced_threads=0 / nr=0 / decimate=1 / interlaced=0 / bluray_compat=0 / constrained_intra=0 / bframes=9 / b_pyramid=2 / b_adapt=2 / b_bias=0 / direct=1 / weightb=1 / open_gop=0 / weightp=2 / keyint=250 / keyint_min=25 / scenecut=40 / intra_refresh=0 / rc=2pass / mbtree=0 / bitrate=1600 / ratetol=1.0 / qcomp=0.60 / qpmin=0 / qpmax=69 / qpstep=4 / cplxblur=20.0 / qblur=0.5 / ip_ratio=1.40 / pb_ratio=1.30 / aq=2:1.00
Default : Yes
Forced : No
Color range : Limited
Color primaries : BT.709
Transfer characteristics : BT.709
Matrix coefficients : BT.709

Audio
ID : 2
Format : AC-3
Format/Info : Audio Coding 3
Format settings, Endianness : Big
Codec ID : A_AC3
Duration : 40 min 54 s
Bit rate mode : Constant
Bit rate : 192 kb/s
Channel(s) : 2 channels
Channel positions : Front: L R
Sampling rate : 48.0 kHz
Frame rate : 31.250 FPS (1536 SPF)
Bit depth : 16 bits
Compression mode : Lossy
Stream size : 56.2 MiB (11%)
Service kind : Complete Main
Default : Yes
Forced : No

Внимание! Раздача ведётся путём добавления новых серий; при каждом добавлении создаётся новый торрент.
Чтобы начать докачку новой серии, пользователям необходимо сделать следующее:
1. Остановить скачивание;
2. Удалить старый торрент у себя из клиента (старые серии удалять не надо);
3. Скачать новый торрент и запустить его у себя в клиенте вместо старого, при этом указать клиенту путь в старую папку куда и должно происходить скачивание новых серий. Ваш клиент при этом должен произвести хеширование (проверку) старой папки и будет докачивать только те серии, которых у вас ещё нет. Старые серии при этом не удаляются, а продолжают раздаваться! Eсли вы уже удалили старые серии, то предотвратить повторную закачку старых серий можно, отжав галочку в соответствующих местах при запуске нового торрента.
pb.wtf



Скачать ЮЗЗЗ через торрент https://i120.fastpic.org/big/2022/0524/e2/259b8c76d5a8135212d9eea80f4eb8e2.jpg Скачать, смотреть онлайн ЮЗЗЗ бесплантно в хорошем качестве Описание: Ростов-на-Дону, наши дни. В одном из рабочих спальных районов на юго-западе города, окрещённого жителями "ЮЗ" кипит жизнь – ... 8.1 10 19
Торрент: Зарегистрирован [2022-06-14 15:16] · скачан: 153 раз
Статус: √ проверено
Размер: 4.57 GB
Как cкачать? Как скачать ЮЗЗЗ через торрент | UTorrent

% Раздел Тема Автор DL S | L
TNT serials [ 11.85 GB ] ЮЗЗЗ / Сезон: 1 / Серии: 1-8 из 8 [2022 WEBRip 1080p] bober100 Скачать
18 | 7
TNT serials [ 4.7 GB ] ЮЗЗЗ / Сезон: 1 / Серии: 1-8 из 8 [2022 WEBRip] bober100 Скачать
10 | 0
TNT serials [ 8.05 GB ] ЮЗЗЗ / Сезон: 1 / Серии: 1-8 из 8 [2022 WEBRip 720p] bober100 Скачать
5 | 1


Последний раз редактировалось: bober100 (2022-06-14 15:16), всего редактировалось 3 раз(а)

28-11-2019 20:33  

Отключить вcю реклaмy на сайте

04-06-2022 09:23 ЮЗЗЗ Скачать торрент  

рейтинг завышен, но смотреть можно. криминал смешной, но девицам понравится, можно подзависнуть на диване рядом с теплой тянкой на пару серий;)pb.wtf



05-06-2022 16:00 ЮЗЗЗ Скачать торрент  

Ох.....ый сериальчик!Жду остальные серии!На одном дыханииpb.wtf



14-06-2022 15:44 ЮЗЗЗ Скачать торрент  

Концовка мутная, не всё понятно.pb.wtf



    Дорогой пользователь! Огромная просьба, поблагодарите релизера, оцените раздачу и оставьте свои комментарий, если Вы скачали ЮЗЗЗ через торрент бесплатно!
    Комментировать посты могут только пользователи прошедшие не сложную регистрацию
    Показать сообщения:    

    ЮЗЗЗ через торрент
    Скачать бесплатно ЮЗЗЗ
    ЮЗЗЗ скачать торрент
    ЮЗЗЗ смотреть онлайн
    Cкачать фильм ЮЗЗЗ бесплатно
    ЮЗЗЗ скачать торрент в хорошем качестве
    ЮЗЗЗ смотреть онлайн бесплатно в хорошем качестве


    Вы не можете начинать темы
    Вы не можете отвечать на сообщения
    Вы не можете редактировать свои сообщения
    Вы не можете удалять свои сообщения
    Вы не можете голосовать в опросах
    Вы не можете прикреплять файлы к сообщениям
    Вы можете скачивать файлы