Лицензия

MVO

1

1 сезон

Лицензия

Лицензия

13

MVO

1 сезон

Deluxe Edition

pack

Рекомендуем

30

Repack

ВАЖНО

ВАЖНО

Ghostwire

RePack

jed

RePack

fifa19

RePack

RDR2

RePack

NEED FOR SPEED™ PAYBACK

RePack

Кинопоиск HD

 Острые козырьки 6 сезон

6 сезон

FAR CRY 6

RePack

Лицензия

MVO

1

1 сезон

1 сезон

Лицензия

  

Ночные налётчики / Ночные рейдеры / Night Raiders / Nocni łowcy (Данис Гуле) [2021, Фантастика, боевик, триллер, WEB-DL 1080p] DUB [Akimbo Production / iTunes]

Ночные налётчики через торрент pb.wtf

Раздают: 3 [ 0 KB/s ]
Размер: 5.3 GB | Добавлен: 3 мес. 30 д. назад | Торрент скачан:170 раз
Смотреть онлайн Ночные налётчики | Скачать   

27-05-2022 03:40 Ночные налётчики Скачать торрент  

Ночные налётчики | Ночные рейдеры
Night Raiders | Nocni łowcy

Год выпуска: 2021
Страна: Канада, Новая Зеландия
Студия: Alcina Pictures, Eagle Vision Inc., Miss Conception Films, Uno Bravo
Жанр: Фантастика, боевик, триллер
Продолжительность: 01:41:19
Перевод: Дублированный | Akimbo Production | iTunes
Субтитры: Русские (Forced), английские

Режиссер: Данис Гуле

rating

В ролях: Эль-Майя Тэйлфизерс, Бруклин Летексье-Харт, Алекс Таррант, Аманда Пламмер, Шон Сайпос, Вайолет Нельсон, Гэйл Морис, Сюзанн Кир, Памела Мэтьюз, Скотт Баркер

Описание: Недалёкое будущее. Женщина вынуждена вступить в подпольную банду, чтобы спасти свою дочь, находящуюся в заложниках в одном из государственных учреждений.

Качество: WEB-DL 1080p
Формат: MKV

Видео: MPEG-4 AVC, ~ 6718 Кb/s, 1916x1032
Аудио#1 Rus: 48 kHz, AC3 Dolby Digital, 3/2 (L, C, R, l, r) + LFE ch, ~384 Kbps
Аудио#2 Eng: 48 kHz, AC3 Dolby Digital, 3/2 (L, C, R, l, r) + LFE ch, ~384 Kbps
скриншот  скриншот  скриншот  скриншот  

Complete name: Nochnyie.naletchiki.2021.WEB-DL.1080p.ELEKTRI4KA.UNIONGANG.mkv
Format: Matroska
Format version: Version 4
File size: 5.30 GiB
Duration: 1 h 41 min
Overall bit rate: 7 485 kb/s
Movie name: Nochnyie.naletchiki.2021.WEB-DL.1080p.ELEKTRI4KA.UNIONGANG.
Encoded date: UTC 2022-05-26 18:47:29
Writing application: mkvmerge v8.3.0 ('Over the Horizon') 32bit
Writing library: libebml v1.3.1 + libmatroska v1.4.2

Video
ID: 1
Format: AVC
Format/Info: Advanced Video Codec
Format profile: [email protected]
Format settings: CABAC / 4 Ref Frames
Format settings, CABAC: Yes
Format settings, Reference frames: 4 frames
Codec ID: V_MPEG4/ISO/AVC
Duration: 1 h 41 min
Bit rate: 6 718 kb/s
Width: 1 916 pixels
Height: 1 032 pixels
Display aspect ratio: 1.85:1
Frame rate mode: Constant
Frame rate: 23.976 (24000/1001) FPS
Color space: YUV
Chroma subsampling: 4:2:0
Bit depth: 8 bits
Scan type: Progressive
Bits/(Pixel*Frame): 0.142
Stream size: 4.75 GiB (90%)
Default: Yes
Forced: No
Color range: Limited
Color primaries: BT.709
Transfer characteristics: BT.709
Matrix coefficients: BT.709

Audio #1
ID: 2
Format: AC-3
Format/Info: Audio Coding 3
Commercial name: Dolby Digital
Codec ID: A_AC3
Duration: 1 h 41 min
Bit rate mode: Constant
Bit rate: 384 kb/s
Channel(s): 6 channels
Channel layout: L R C LFE Ls Rs
Sampling rate: 48.0 kHz
Frame rate: 31.250 FPS (1536 SPF)
Compression mode: Lossy
Stream size: 278 MiB (5%)
Title: DUB (iTunes)
Language: Russian
Service kind: Complete Main
Default: Yes
Forced: Yes

Audio #2
ID: 3
Format: AC-3
Format/Info: Audio Coding 3
Commercial name: Dolby Digital
Codec ID: A_AC3
Duration: 1 h 41 min
Bit rate mode: Constant
Bit rate: 384 kb/s
Channel(s): 6 channels
Channel layout: L R C LFE Ls Rs
Sampling rate: 48.0 kHz
Frame rate: 31.250 FPS (1536 SPF)
Compression mode: Lossy
Stream size: 278 MiB (5%)
Title: English
Language: English
Service kind: Complete Main
Default: No
Forced: No

Text #1
ID: 4
Format: UTF-8
Codec ID: S_TEXT/UTF8
Codec ID/Info: UTF-8 Plain Text
Duration: 1 h 34 min
Bit rate: 4 b/s
Count of elements: 51
Stream size: 3.14 KiB (0%)
Title: Forced
Language: Russian
Default: Yes
Forced: No

Text #2
ID: 5
Format: UTF-8
Codec ID: S_TEXT/UTF8
Codec ID/Info: UTF-8 Plain Text
Duration: 1 h 34 min
Bit rate: 4 b/s
Count of elements: 96
Stream size: 3.08 KiB (0%)
Title: English [Forced]
Language: English
Default: No
Forced: Yes

Text #3
ID: 6
Format: UTF-8
Codec ID: S_TEXT/UTF8
Codec ID/Info: UTF-8 Plain Text
Duration: 1 h 34 min
Bit rate: 31 b/s
Count of elements: 836
Stream size: 21.6 KiB (0%)
Language: English
Default: No
Forced: No




Скачать Ночные налётчики через торрент https://i120.fastpic.org/big/2022/0526/0e/324e3c6b9fbf771117e271cb3aa57d0e.jpg Скачать, смотреть онлайн Ночные налётчики бесплантно в хорошем качестве Описание: Недалёкое будущее. Женщина вынуждена вступить в подпольную банду, чтобы спасти свою дочь, находящуюся в заложниках в одном из ... 5.3 10 19
Торрент: Зарегистрирован [2022-05-27 03:40] · скачан: 170 раз
Статус: √ проверено
Размер: 5.3 GB
Как cкачать? Как скачать Ночные налётчики через торрент | UTorrent

% Раздел Тема Автор DL S | L
Фильмы 2021 [DVDrip, WEB-DLRip, HDrip] (DUB, MVO) [ 2.15 GB ] Ночные налётчики / Night Raiders | iTunes | BDRip-AVC Lithuania Скачать
2 | 0
Фильмы 2021 [DVDrip, WEB-DLRip, HDrip] (DUB, MVO) [ 1.85 GB ] Ночные налётчики / Ночные рейдеры / Night Raiders / Nocni łowcy | iTunes | BDRip-AVC bober100 Скачать
2 | 0
Фильмы [HD 720p, 1080p] (Хороший звук DUB, MVO) [ 4.47 GB ] Ночные налётчики / Ночные рейдеры / Night Raiders / Nocni łowcy | iTunes | 720p bober100 Скачать
1 | 0
Фильмы (Blu-ray, BD-Remux, HDDVD) [ 18.43 GB ] Ночные налётчики / Ночные рейдеры / Night Raiders / Nocni łowcy | iTunes | BD Remux 1080i bober100 Скачать
1 | 0
Фильмы [HD 720p, 1080p] (Хороший звук DUB, MVO) [ 8.07 GB ] Ночные налётчики / Ночные рейдеры / Night Raiders / Nocni łowcy | iTunes | 1080p bober100 Скачать
3 | 0
Фильмы 2021 [DVDrip, WEB-DLRip, HDrip] (DUB, MVO) [ 746 MB ] Ночные налётчики / Ночные рейдеры / Night Raiders / Nocni łowcy | iTunes | BDRip bober100 Скачать
1 | 0
Фильмы 2021 [DVDrip, WEB-DLRip, HDrip] (DUB, MVO) [ 1.46 GB ] Ночные налётчики / Ночные рейдеры / Night Raiders / Nocni łowcy | iTunes | BDRip bober100 Скачать
5 | 0

28-11-2019 20:33  

Отключить вcю реклaмy на сайте

27-05-2022 13:45 Ночные налётчики Скачать торрент  

какой новый сюжет



    Дорогой пользователь! Огромная просьба, поблагодарите релизера, оцените раздачу и оставьте свои комментарий, если Вы скачали Ночные налётчики через торрент бесплатно!!
    Комментировать посты могут только пользователи прошедшие не сложную регистрацию
    Показать сообщения:    


    Ночные налётчики через торрент
    Скачать бесплатно Ночные налётчики
    Ночные налётчики скачать торрент
    Ночные налётчики смотреть онлайн
    Cкачать фильм Ночные налётчики бесплатно
    Ночные налётчики скачать торрент в хорошем качестве
    Ночные налётчики смотреть онлайн бесплатно в хорошем качестве
    Вы не можете начинать темы
    Вы не можете отвечать на сообщения
    Вы не можете редактировать свои сообщения
    Вы не можете удалять свои сообщения
    Вы не можете голосовать в опросах
    Вы не можете прикреплять файлы к сообщениям
    Вы можете скачивать файлы