Всегда рабочее зеркало без VPN и Proxy просто перед .vidak.icu напиши любое слово или цифру, Пример http://2s5o.vidak.icu

MVO

Лицензия

1 сезон

1

1 сезон

iTunes

1 сезон

13

1 сезон

Deluxe

pack

Рекомендуем

Пиратка

30

ВАЖНО

RePack

MK11

RePack

jed

RePack

fifa19

RePack

RDR2

RePack

NEED FOR SPEED™ PAYBACK

Кинопоиск HD

6 сезон

 Острые козырьки 6 сезон

Все сериалы

все сериалы на PB.wtf

RePack

FAR CRY 5

Anonymous, нам критически не хватает 2100 руб. на оплату серверов и переферии за МАЙ, помоги нам пожалуйста, вся надежда только на тебя. В благодарность мы отключим тебе всю рекламу на сайте!

×
  
Magnet ссылка

Линкольн для адвоката / Сезон: 1 / Серии: 1-10 из 10 / The Lincoln Lawyer (Дэвид Гроссман, Алонсо Альварез, Билл Д`Элиа) [2022, Триллер, драма, криминал, детектив, WEB-DL 1080p] [MVO] (TVShows) pb.wtf

Линкольн для адвоката через торрент pb.wtf

Раздают: 3 [ 327 KB/s ]
Размер: 11.81 GB | Добавлен: 29 д. назад | Торрент скачан:60 раз
Смотреть онлайн Линкольн для адвоката | Скачать    Ребята, помогите собрать деньги на оплату серверов!!!

27-05-2022 03:48 Линкольн для адвоката Скачать торрент  

Линкольн для адвоката / The Lincoln Lawyer
✦ Год выпуска: 2022
✦ Страна: США
✦ Жанр: Триллер, драма, криминал, детектив
✦ Продолжительность: 10 x ~ 00:50:00
✦ Перевод: Профессиональный (многоголосый закадровый) - TVShows
✦ Субтитры: Английские, русские, украинские

✦ Режиссёр: Дэвид Гроссман, Алонсо Альварез, Билл Д`Элиа

✦ В ролях: Мануэль Рульфо, Нив Кэмпбелл, Кристофер Горам, Джаз Рэйкол, Нтаре Мвине, Майкл Грациадей, Ламонт Томпсон, Криста Уорнер, Регги Ли, Крисинг

✦ Описание: Экранизация романа «Свинцовый вердикт» Майкла Коннели. Микки Холлер, успешный адвокат из Лос-Анджелеса, оказавшийся вне игры после аварии, берется за дело об убийстве, чтобы вернуться в строй.

rating

✦ Качество: WEB-DL 1080p
✦ Формат: MKV
✦ Видео: MPEG-4 AVC, 1920x1080, ~ 2 500 kbps/s, 23,976 fps
✦ Аудио #1 Rus: 48 kHz, AC3, 2 ch, 192 kbps | TVShows
✦ Аудио #2 Eng: 48 kHz, E-AC3, 6 ch, 768 kbps
скриншот  скриншот  скриншот  скриншот  
General
Unique ID : 230653030781702661328473651593364662349 (0xAD86286A788527B59D41B5786B0C684D)
Complete name : The Lincoln Lawyer.S01.WEB-DL1080p.xz\The Lincoln Lawyer.S01E01.WEB-DL.1080p.(TVShows).xz.mkv
Format : Matroska
Format version : Version 4
File size : 1.08 GiB
Duration : 48 min 43 s
Overall bit rate mode : Variable
Overall bit rate : 3 187 kb/s
Movie name : The Lincoln Lawyer.S01E01.WEB-DL.1080p.(TVShows).xz
Encoded date : UTC 2022-05-27 03:42:19
Writing application : mkvmerge v6.1.0 ('Old Devil') built on Mar 2 2013 14:32:37
Writing library : libebml v1.3.0 + libmatroska v1.4.0

Video
ID : 1
Format : AVC
Format/Info : Advanced Video Codec
Format profile : High@L4
Format settings : CABAC / 4 Ref Frames
Format settings, CABAC : Yes
Format settings, Reference : 4 frames
Codec ID : V_MPEG4/ISO/AVC
Duration : 48 min 43 s
Bit rate mode : Variable
Bit rate : 2 464 kb/s
Maximum bit rate : 20.0 Mb/s
Width : 1 920 pixels
Height : 1 080 pixels
Display aspect ratio : 16:9
Frame rate mode : Constant
Frame rate : 23.976 (24000/1001) FPS
Color space : YUV
Chroma subsampling : 4:2:0
Bit depth : 8 bits
Scan type : Progressive
Bits/(Pixel*Frame) : 0.044
Stream size : 754 MiB (68%)
Title : The Lincoln Lawyer.S01E01.WEB-DL.1080p.(TVShows).xz
Writing library : x264 core 148 r2727 7d026e8
Encoding settings : cabac=1 / ref=4 / deblock=1:0:0 / analyse=0x3:0x111 / me=umh / subme=10 / psy=1 / psy_rd=1.00:0.00 / mixed_ref=1 / me_range=120 / chroma_me=1 / trellis=2 / 8x8dct=1 / cqm=0 / deadzone=21,11 / fast_pskip=1 / chroma_qp_offset=-2 / threads=8 / lookahead_threads=2 / sliced_threads=0 / nr=0 / decimate=1 / interlaced=0 / bluray_compat=0 / stitchable=1 / constrained_intra=0 / bframes=16 / b_pyramid=2 / b_adapt=2 / b_bias=0 / direct=3 / weightb=1 / open_gop=0 / weightp=2 / keyint=240 / keyint_min=121 / scenecut=0 / intra_refresh=0 / rc_lookahead=240 / rc=crf / mbtree=1 / crf=22.0 / qcomp=0.50 / qpmin=6 / qpmax=51 / qpstep=4 / vbv_maxrate=20000 / vbv_bufsize=25000 / crf_max=0.0 / nal_hrd=vbr / filler=0 / ip_ratio=1.40 / aq=1:0.80
Default : Yes
Forced : No
Statistics Tags Issue : mkvmerge v67.0.0 ('Under Stars') 64-bit / mkvmerge v6.1.0 ('Old Devil') built on Mar 2 2013 14:32:37 2022-05-27 03:42:19
FromStats_BitRate : 2224578
FromStats_Duration : 00:48:43.379000000
FromStats_FrameCount : 70091
FromStats_StreamSize : 812910780
Duration_Source : General_Duration

Audio #1
ID : 2
Format : AC-3
Format/Info : Audio Coding 3
Commercial name : Dolby Digital
Codec ID : A_AC3
Duration : 48 min 43 s
Bit rate mode : Constant
Bit rate : 192 kb/s
Channel(s) : 2 channels
Channel layout : L R
Sampling rate : 48.0 kHz
Frame rate : 31.250 FPS (1536 SPF)
Compression mode : Lossy
Stream size : 66.9 MiB (6%)
Title : TVShows
Language : Russian
Service kind : Complete Main
Default : No
Forced : No
Duration_Source : General_Duration

Audio #2
ID : 3
Format : E-AC-3 JOC
Format/Info : Enhanced AC-3 with Joint Object Coding
Commercial name : Dolby Digital Plus with Dolby Atmos
Codec ID : A_EAC3
Duration : 48 min 43 s
Bit rate mode : Constant
Bit rate : 768 kb/s
Channel(s) : 6 channels
Channel layout : L R C LFE Ls Rs
Sampling rate : 48.0 kHz
Frame rate : 31.250 FPS (1536 SPF)
Compression mode : Lossy
Stream size : 268 MiB (24%)
Language : English
Service kind : Complete Main
Default : No
Forced : No
Statistics Tags Issue : mkvmerge v67.0.0 ('Under Stars') 64-bit / mkvmerge v6.1.0 ('Old Devil') built on Mar 2 2013 14:32:37 2022-05-27 03:42:19
FromStats_BitRate : 768000
FromStats_Duration : 00:48:43.520000000
FromStats_FrameCount : 91360
FromStats_StreamSize : 280657920
Complexity index : 16
Number of dynamic objects : 15
Bed channel count : 1 channel
Bed channel configuration : LFE
Duration_Source : General_Duration

Text #1
ID : 4
Format : UTF-8
Codec ID : S_TEXT/UTF8
Codec ID/Info : UTF-8 Plain Text
Language : English
Default : No
Forced : No
Statistics Tags Issue : mkvmerge v67.0.0 ('Under Stars') 64-bit / mkvmerge v6.1.0 ('Old Devil') built on Mar 2 2013 14:32:37 2022-05-27 03:42:19
FromStats_BitRate : 84
FromStats_Duration : 00:44:38.259000000
FromStats_FrameCount : 774
FromStats_StreamSize : 28398

Text #2
ID : 5
Format : UTF-8
Codec ID : S_TEXT/UTF8
Codec ID/Info : UTF-8 Plain Text
Title : SDH
Language : English
Default : No
Forced : No
Statistics Tags Issue : mkvmerge v67.0.0 ('Under Stars') 64-bit / mkvmerge v6.1.0 ('Old Devil') built on Mar 2 2013 14:32:37 2022-05-27 03:42:19
FromStats_BitRate : 86
FromStats_Duration : 00:45:04.618000000
FromStats_FrameCount : 801
FromStats_StreamSize : 29342

Text #3
ID : 6
Format : UTF-8
Codec ID : S_TEXT/UTF8
Codec ID/Info : UTF-8 Plain Text
Language : Russian
Default : No
Forced : No
Statistics Tags Issue : mkvmerge v67.0.0 ('Under Stars') 64-bit / mkvmerge v6.1.0 ('Old Devil') built on Mar 2 2013 14:32:37 2022-05-27 03:42:19
FromStats_BitRate : 122
FromStats_Duration : 00:47:01.193000000
FromStats_FrameCount : 788
FromStats_StreamSize : 43224

Text #4
ID : 7
Format : UTF-8
Codec ID : S_TEXT/UTF8
Codec ID/Info : UTF-8 Plain Text
Language : Ukrainian
Default : No
Forced : No
Statistics Tags Issue : mkvmerge v67.0.0 ('Under Stars') 64-bit / mkvmerge v6.1.0 ('Old Devil') built on Mar 2 2013 14:32:37 2022-05-27 03:42:19
FromStats_BitRate : 126
FromStats_Duration : 00:47:01.193000000
FromStats_FrameCount : 788
FromStats_StreamSize : 44551
Когда раздача ведётся путём добавления новых серий, при каждом добавлении создётся новый торрент. Чтобы начать докачку новой серии, пользователям необходимо сделать следующее:

(1) остановить скачивание,

(2) удалить старый торрент у себя из клиента (старые серии удалять не надо),

(3) скачать новый торрент и запустить его у себя в клиенте вместо старого, при этом указать клиенту путь в старую папку, куда и должно происходить скачивание новых серий.

Ваш клиент при этом должен произвести хеширование (проверку) старой папки (если не производит сам - помогите ему сделать это), и будет докачивать только те серии, которых у вас ещё нет. Старые серии при этом не удаляются, а продолжают раздаваться!

Eсли вы уже удалили старые серии, то предотвратить повторную закачку старых серий можно, отжав галочку в соответствующих местах при запуске нового торрента. По возможности, желательно не удалять старые серии как можно дольше, чтобы релизер не столько продолжал раздавать старые серии, а смог сконцентрироваться на новых.
pb.wtf



Скачать Линкольн для адвоката через торрент https://i120.fastpic.org/big/2022/0527/27/06b7ef78e69611e4d4bbb9321ee91627.jpeg Скачать, смотреть онлайн Линкольн для адвоката бесплантно в хорошем качестве Описание: Экранизация романа «Свинцовый вердикт» Майкла Коннели. Микки Холлер, успешный адвокат из Лос-Анджелеса, оказавшийся вне игры ... 6.4 10 5
Торрент: Зарегистрирован [2022-05-27 18:51] · скачан: 60 раз
Статус: √ проверено
Размер: 11.81 GB
Как cкачать? Как скачать Линкольн для адвоката через торрент | UTorrent

% Раздел Тема Автор DL S | L
Зарубежные сериалы [ 17.24 GB ] Линкольн для адвоката / Сезон: 1 / Серии: 1-10 из 10 / The Lincoln Lawyer [2022 WEB-DL 1080p] MVO [RuDub] bober100 Скачать
2 | 1
T Зарубежные сериалы [ 24.55 GB ] Линкольн для адвоката / Сезон: 1 / Серии: 1-10 из 10 / The Lincoln Lawyer [2022 WEBRip 1080p] MVO [ColdFilm] bober100 Скачать
1 | 0

28-11-2019 20:33  

Отключить всю рекламу на сайте

    Дорогой пользователь! Огромная просьба, поблагодарите релизера, оцените раздачу и оставьте свои комментарий, если Вы скачали Линкольн для адвоката через торрент бесплатно!
    Комментировать посты могут только пользователи прошедшие не сложную регистрацию
    Показать сообщения:    

    Линкольн для адвоката через торрент
    Скачать бесплатно Линкольн для адвоката
    Линкольн для адвоката скачать торрент
    Линкольн для адвоката смотреть онлайн
    Cкачать фильм Линкольн для адвоката бесплатно
    Линкольн для адвоката скачать торрент в хорошем качестве
    Линкольн для адвоката смотреть онлайн бесплатно в хорошем качестве


    Вы не можете начинать темы
    Вы не можете отвечать на сообщения
    Вы не можете редактировать свои сообщения
    Вы не можете удалять свои сообщения
    Вы не можете голосовать в опросах
    Вы не можете прикреплять файлы к сообщениям
    Вы можете скачивать файлы