Всегда рабочее зеркало без VPN и Proxy просто перед .vidak.icu напиши любое слово или цифру, Пример http://9z54.vidak.icu

Лицензия

MVO

1 сезон

1

1 сезон

iTunes

1 сезон

13

1 сезон

Deluxe

pack

Рекомендуем

Repack

30

ВАЖНО

RePack

MK11

RePack

jed

RePack

fifa19

RePack

RDR2

RePack

NEED FOR SPEED™ PAYBACK

Кинопоиск HD

6 сезон

 Острые козырьки 6 сезон

Все сериалы

все сериалы на PB.wtf

RePack

FAR CRY 5
  
Magnet ссылка

Оби-Ван Кеноби / Obi-Wan Kenobi / Сезон: 1 / Серии: 1-2 из 6 (Дебора Чоу) [2022, Фантастика, боевик, приключения, WEBRip 1080p] SUB pb.wtf

Оби-Ван Кеноби через торрент pb.wtf

Раздают: 1 [ 0 KB/s ]
Размер: 4.61 GB | Добавлен: 2 мес. 19 д. назад | Торрент скачан:141 раз
Смотреть онлайн Оби-Ван Кеноби | Скачать    Ребята, помогите собрать деньги на оплату серверов!!!

27-05-2022 08:34 Оби-Ван Кеноби Скачать торрент  

Оби-Ван Кеноби | Obi-Wan Kenobi
«***»
Год выпуска: 2022
Страна: США
Выпущено: Lucasfilm Ltd., Walt Disney Studios
Жанр: Фантастика, боевик, приключения
Продолжительность: ~ 00:45:00 серия
Перевод: Субтитры
Субтитры: Русские ( (Forced, Full |Где тексты, Лебовски?|), английские (Full, SDH)

Режиссер: Дебора Чоу

rating

В ролях: Хейден Кристенсен (Hayden Christensen), Руперт Френд (Rupert Friend), Юэн Макгрегор (Ewan McGregor), Джоэл Эдгертон (Joel Edgerton), Майя Эрскин (Maya Erskine), Кумэйл Нанджиани (Kumail Nanjiani), Моусес Ингрэм (Moses Ingram), Бонни Пессе (Bonnie Piesse), Бенни Сэфди (Benny Safdie), О’Ши Джексон мл. (O'Shea Jackson Jr.), Сон Ган (Sung Kang), Симона Кэссел (Simone Kessell)

Описание: Спин-офф «Звездных войн», действие которого разворачивается спустя 10 лет после финала «Мести ситхов» и за 9 лет до событий «Новой надежды». Джедай Оби-Ван Кеноби присматривает за юным Люком Скайуокером и прячется от охотников Империи во время изгнания на Татуине. Как и прежде, Оби-Вана Кеноби играет Юэн Макгрегор, а Дарта Вейдера — Хейден Кристенсен.

Качество: WEBRip 1080p
Формат: MKV

Видео: 1920x1080 at 24.000 fps, MPEG-4 AVC, ~6700 kbps avg
Аудио: English: 48 kHz, E-AC3, 3/2 (L,C,R,l,r) + LFE ch, ~768 kbps avg
скриншот  скриншот  скриншот  скриншот  

скриншот  скриншот  скриншот  скриншот  

Общее
Уникальный идентификатор : 313339558477753350585758126177920437648 (0xEBBB00FBE083409CCFE9D2A635234D90)
Полное имя : E:\_Сериалы\_Сериалы\Оби-Ван Кеноби\Obi-Wan.Kenobi.S01.WEBDL.1080p.Eng\Obi-Wan.Kenobi.S01E01.WEBDL.1080p.mkv
Формат : Matroska
Версия формата : Version 4
Размер файла : 2,73 Гбайт
Продолжительность : 52 м. 28 с.
Режим общего битрейта : Переменный
Общий поток : 7 450 Кбит/сек
Дата кодирования : UTC 2022-05-27 10:20:20
Программа кодирования : mkvmerge v68.0.0 ('The Curtain') 64-bit
Библиотека кодирования : libebml v1.4.2 + libmatroska v1.6.4

Видео
Идентификатор : 1
Формат : AVC
Формат/Информация : Advanced Video Codec
Профиль формата : [email protected]
Настройки формата : CABAC / 4 Ref Frames
Параметр CABAC формата : Да
Параметр RefFrames формата : 4 кадра
Идентификатор кодека : V_MPEG4/ISO/AVC
Продолжительность : 52 м. 28 с.
Вид битрейта : Переменный
Битрейт : 6 679 Кбит/сек
Максимальный битрейт : 12,7 Мбит/сек
Ширина : 1 920 пикселей
Высота : 1 080 пикселей
Соотношение сторон : 16:9
Режим частоты кадров : Постоянный
Частота кадров : 24,000 кадра/сек
Цветовое пространство : YUV
Субдискретизация насыщенности : 4:2:0
Битовая глубина : 8 бит
Тип развёртки : Прогрессивная
Бит/(Пиксели*Кадры) : 0.134
Размер потока : 2,45 Гбайт (90%)
Язык : English
Default : Да
Forced : Нет
Цветовой диапазон : Limited
Основные цвета : BT.709
Характеристики трансфера : BT.709
Коэффициенты матрицы : BT.709

Аудио
Идентификатор : 2
Формат : E-AC-3 JOC
Формат/Информация : Enhanced AC-3 with Joint Object Coding
Коммерческое название : Dolby Digital Plus with Dolby Atmos
Идентификатор кодека : A_EAC3
Продолжительность : 52 м. 28 с.
Вид битрейта : Постоянный
Битрейт : 768 Кбит/сек
Каналы : 6 каналов
Channel layout : L R C LFE Ls Rs
Частота : 48,0 КГц
Частота кадров : 31,250 кадров/сек (1536 SPF)
Метод сжатия : С потерями
Размер потока : 288 Мбайт (10%)
Заголовок : Eng
Язык : English
Service kind : Complete Main
Default : Да
Forced : Нет
Complexity index : 16
Number of dynamic objects : 15
Bed channel count : 1 канал
Bed channel configuration : LFE

Текст #1
Идентификатор : 3
Формат : UTF-8
Идентификатор кодека : S_TEXT/UTF8
Идентификатор кодека/Информация : UTF-8 Plain Text
Продолжительность : 48 м. 47 с.
Битрейт : 62 бит/сек
Count of elements : 501
Размер потока : 22,4 Кбайт (0%)
Заголовок : Rus
Язык : Russian
Default : Да
Forced : Нет

Текст #2
Идентификатор : 4
Формат : UTF-8
Идентификатор кодека : S_TEXT/UTF8
Идентификатор кодека/Информация : UTF-8 Plain Text
Продолжительность : 47 м. 44 с.
Битрейт : 36 бит/сек
Count of elements : 476
Размер потока : 12,7 Кбайт (0%)
Заголовок : Eng
Язык : English
Default : Нет
Forced : Нет

Текст #3
Идентификатор : 5
Формат : UTF-8
Идентификатор кодека : S_TEXT/UTF8
Идентификатор кодека/Информация : UTF-8 Plain Text
Продолжительность : 48 м. 23 с.
Битрейт : 45 бит/сек
Count of elements : 619
Размер потока : 16,1 Кбайт (0%)
Заголовок : SDH
Язык : English
Default : Нет
Forced : Нет

Меню
00:00:04.292 : en:Recap
00:04:06.417 : en:End of Recap
00:52:30.167 : en:Credits

Когда раздача ведётся путём добавления новых серий, при каждом добавлении создётся новый торрент. Чтобы начать докачку новой серии, пользователям необходимо сделать следующее:
(1) остановить скачивание,
(2) удалить старый торрент у себя из клиента (старые серии удалять не надо),
(3) скачать новый торрент и запустить его у себя в клиенте вместо старого, при этом указать клиенту путь в старую папку, куда и должно происходить скачивание новых серий.
Ваш клиент при этом должен произвести хеширование (проверку) старой папки (если не производит сам - помогите ему сделать это), и будет докачивать только те серии, которых у вас ещё нет. Старые серии при этом не удаляются, а продолжают раздаваться!
Eсли вы уже удалили старые серии, то предотвратить повторную закачку старых серий можно, отжав галочку в соответсвующих местах при запуске нового торрента. По возможности, желательно не удалять старые серии как можно дольше, чтобы релизёр не столько продолжал раздавать старые серии, а смог сконцентрироваться на новых.

pb.wtf



Скачать Оби-Ван Кеноби через торрент https://i2.imageban.ru/out/2022/05/27/7359f180481081ac026706be1677d1cc.png Скачать, смотреть онлайн Оби-Ван Кеноби бесплантно в хорошем качестве Описание: Спин-офф «Звездных войн», действие которого разворачивается спустя 10 лет после финала «Мести ситхов» и за 9 лет до событий ... 9.2 10 11
Info! Золотая раздача, скачанное не засчитывается.
Торрент: Зарегистрирован [2022-05-27 10:12] · скачан: 141 раз
Статус: √ проверено
Размер: 4.61 GB
Как cкачать? Как скачать Оби-Ван Кеноби через торрент | UTorrent



Последний раз редактировалось: bober100 (2022-05-27 20:07), всего редактировалось 1 раз

28-11-2019 20:33  

Отключить вcю реклaмy на сайте

27-05-2022 17:52 Оби-Ван Кеноби Скачать торрент  

Ващеее кулл! Я фанат всей серии Стар Варс. Спасибо!pb.wtf



27-05-2022 21:25 Оби-Ван Кеноби Скачать торрент  

Мдя, для младшего школьного возраста.pb.wtf



    Дорогой пользователь! Огромная просьба, поблагодарите релизера, оцените раздачу и оставьте свои комментарий, если Вы скачали Оби-Ван Кеноби через торрент бесплатно!
    Комментировать посты могут только пользователи прошедшие не сложную регистрацию
    Показать сообщения:    

    Оби-Ван Кеноби через торрент
    Скачать бесплатно Оби-Ван Кеноби
    Оби-Ван Кеноби скачать торрент
    Оби-Ван Кеноби смотреть онлайн
    Cкачать фильм Оби-Ван Кеноби бесплатно
    Оби-Ван Кеноби скачать торрент в хорошем качестве
    Оби-Ван Кеноби смотреть онлайн бесплатно в хорошем качестве


    Вы не можете начинать темы
    Вы не можете отвечать на сообщения
    Вы не можете редактировать свои сообщения
    Вы не можете удалять свои сообщения
    Вы не можете голосовать в опросах
    Вы не можете прикреплять файлы к сообщениям
    Вы можете скачивать файлы