Всегда рабочее зеркало без VPN и Proxy просто перед .vidak.icu напиши любое слово или цифру, Пример http://mwfl.vidak.icu

MVO

Лицензия

1 сезон

1

1 сезон

iTunes

1 сезон

13

1 сезон

Deluxe

pack

Рекомендуем

Пиратка

30

ВАЖНО

RePack

MK11

RePack

jed

RePack

fifa19

RePack

RDR2

RePack

NEED FOR SPEED™ PAYBACK

Кинопоиск HD

6 сезон

 Острые козырьки 6 сезон

Все сериалы

все сериалы на PB.wtf

RePack

FAR CRY 5

Anonymous, нам критически не хватает 2100 руб. на оплату серверов и переферии за МАЙ, помоги нам пожалуйста, вся надежда только на тебя. В благодарность мы отключим тебе всю рекламу на сайте!

×
  
Magnet ссылка

Бэтмен / The Batman (Мэтт Ривз) [2022, Боевик, драма, криминал, детектив, BDRip 720p] DUB [iTunes] pb.wtf

Бэтмен через торрент pb.wtf

Раздают: 5 [ 0 KB/s ]
Размер: 8.67 GB | Добавлен: 29 д. назад | Торрент скачан:116 раз
Смотреть онлайн Бэтмен | Скачать    Ребята, помогите собрать деньги на оплату серверов!!!

27-05-2022 15:55 Бэтмен Скачать торрент  

Бэтмен
The Batman

Год выпуска: 2022
Страна: США
Выпущено: Warner Bros.6th & Idaho Productions, DC Comics
Жанр: Боевик, драма, криминал, детектив
Продолжительность: 02:56:12
Перевод: Дублированный | iTunes
Субтитры: Русские (Forced, 2 x full), английские, украинские

Режиссер: Мэтт Ривз

rating

В ролях: Роберт Паттинсон, Зои Кравиц, Пол Дано, Джеффри Райт, Джон Туртурро, Питер Сарсгаард, Барри Кеоган, Джейми Лосон, Энди Серкис, Колин Фаррелл

Описание: После двух лет поисков правосудия на улицах Готэма для своих сограждан Бэтмен становится олицетворением беспощадного возмездия. Когда в городе происходит серия жестоких нападений на представителей элиты, загадочные улики приводят Брюса Уэйна в самые темные закоулки преступного мира, где он встречает Женщину-Кошку, Пингвина, Кармайна Фальконе и Загадочника. Теперь под прицелом оказывается сам Бэтмен, которому предстоит отличить друга от врага и восстановить справедливость во имя Готэма.

Качество: BDRip 720p
Формат: MKV

Видео: MPEG-4 AVC, 5892 Kбит/с, 1280x536, 23.976 fps
Аудио #01: 48 kHz, AC3, 5.1, 384 Kbps | Дублированный | iTunes | RUS |
Аудио #02: 48 kHz, E-AC3+Atmos, 5.1, 768 Kbps | Оригинал | ENG |
скриншот  скриншот  скриншот  скриншот  

Complete name : The.Batman.2022.BDRip.720p.ELEKTRI4KA.UNIONGANG.mkv
Format : Matroska
Format version : Version 4
File size : 8.67 GiB
Duration : 2 h 56 min
Overall bit rate : 7 047 kb/s
Movie name : The.Batman.2022.BDRip.720p.ELEKTRI4KA.UNIONGANG.
Encoded date : UTC 2022-05-27 15:14:01
Writing application : mkvmerge v8.3.0 ('Over the Horizon') 32bit
Writing library : libebml v1.3.1 + libmatroska v1.4.2

Video
ID : 1
Format : AVC
Format/Info : Advanced Video Codec
Format profile : High@L4.1
Format settings : CABAC / 12 Ref Frames
Format settings, CABAC : Yes
Format settings, Reference frames : 12 frames
Codec ID : V_MPEG4/ISO/AVC
Duration : 2 h 56 min
Bit rate : 5 892 kb/s
Width : 1 280 pixels
Height : 536 pixels
Display aspect ratio : 2.40:1
Frame rate mode : Constant
Frame rate : 23.976 (24000/1001) FPS
Color space : YUV
Chroma subsampling : 4:2:0
Bit depth : 8 bits
Scan type : Progressive
Bits/(Pixel*Frame) : 0.358
Stream size : 7.25 GiB (84%)
Writing library : x264 core 164 r3094+49M 0246926 devel [(8 & 10)-bit@all X86_64]
Encoding settings : cabac=1 / ref=12 / deblock=1:-3:-3 / analyse=0x3:0x133 / me=umh / subme=10 / psy=1 / fade_compensate=0.00 / psy_rd=1.00:0.00 / mixed_ref=1 / me_range=32 / chroma_me=1 / trellis=2 / 8x8dct=1 / cqm=0 / deadzone=21,11 / fast_pskip=0 / chroma_qp_offset=-2 / threads=12 / lookahead_threads=2 / sliced_threads=0 / nr=0 / decimate=0 / interlaced=0 / bluray_compat=0 / constrained_intra=0 / fgo=0 / bframes=8 / b_pyramid=2 / b_adapt=2 / b_bias=0 / direct=3 / weightb=1 / open_gop=0 / weightp=2 / keyint=250 / keyint_min=23 / scenecut=40 / intra_refresh=0 / rc_lookahead=60 / rc=2pass / mbtree=0 / bitrate=5892 / ratetol=1.0 / qcomp=0.60 / qpmin=0:0:0 / qpmax=69:69:69 / qpstep=4 / cplxblur=20.0 / qblur=0.5 / vbv_maxrate=62500 / vbv_bufsize=78125 / nal_hrd=none / filler=0 / ip_ratio=1.30 / pb_ratio=1.20 / aq=3:0.80 / aq-sensitivity=10.00 / aq-factor=1.00:1.00:1.00 / aq2=0 / aq3=0
Language : English
Default : Yes
Forced : No
Color range : Limited
Color primaries : BT.709
Transfer characteristics : BT.709
Matrix coefficients : BT.709

Audio #1
ID : 2
Format : AC-3
Format/Info : Audio Coding 3
Commercial name : Dolby Digital
Codec ID : A_AC3
Duration : 2 h 56 min
Bit rate mode : Constant
Bit rate : 384 kb/s
Channel(s) : 6 channels
Channel layout : L R C LFE Ls Rs
Sampling rate : 48.0 kHz
Frame rate : 31.250 FPS (1536 SPF)
Compression mode : Lossy
Stream size : 484 MiB (5%)
Title : DUB (iTunes)
Language : Russian
Service kind : Complete Main
Default : Yes
Forced : Yes

Audio #2
ID : 3
Format : E-AC-3 JOC
Format/Info : Enhanced AC-3 with Joint Object Coding
Commercial name : Dolby Digital Plus with Dolby Atmos
Codec ID : A_EAC3
Duration : 2 h 56 min
Bit rate mode : Constant
Bit rate : 768 kb/s
Channel(s) : 6 channels
Channel layout : L R C LFE Ls Rs
Sampling rate : 48.0 kHz
Frame rate : 31.250 FPS (1536 SPF)
Compression mode : Lossy
Stream size : 968 MiB (11%)
Language : English
Service kind : Complete Main
Default : No
Forced : No
Complexity index : 16
Number of dynamic objects : 15
Bed channel count : 1 channel
Bed channel configuration : LFE

Text #1
ID : 4
Format : UTF-8
Codec ID : S_TEXT/UTF8
Codec ID/Info : UTF-8 Plain Text
Duration : 2 h 55 min
Bit rate : 3 b/s
Count of elements : 119
Stream size : 4.98 KiB (0%)
Title : Forced
Language : Russian
Default : Yes
Forced : Yes

Text #2
ID : 5
Format : UTF-8
Codec ID : S_TEXT/UTF8
Codec ID/Info : UTF-8 Plain Text
Duration : 2 h 55 min
Bit rate : 72 b/s
Count of elements : 1924
Stream size : 93.0 KiB (0%)
Title : Full
Language : Russian
Default : No
Forced : No

Text #3
ID : 6
Format : UTF-8
Codec ID : S_TEXT/UTF8
Codec ID/Info : UTF-8 Plain Text
Duration : 2 h 46 min
Bit rate : 76 b/s
Count of elements : 1907
Stream size : 93.7 KiB (0%)
Title : FOCS
Language : Russian
Default : No
Forced : No

Text #4
ID : 7
Format : UTF-8
Codec ID : S_TEXT/UTF8
Codec ID/Info : UTF-8 Plain Text
Duration : 2 h 44 min
Bit rate : 82 b/s
Count of elements : 1898
Stream size : 99.1 KiB (0%)
Title : JeniaRudik
Language : Ukrainian
Default : No
Forced : No

Text #5
ID : 8
Format : UTF-8
Codec ID : S_TEXT/UTF8
Codec ID/Info : UTF-8 Plain Text
Duration : 2 h 43 min
Bit rate : 45 b/s
Count of elements : 2040
Stream size : 54.7 KiB (0%)
Language : English
Default : No
Forced : No

Text #6
ID : 9
Format : UTF-8
Codec ID : S_TEXT/UTF8
Codec ID/Info : UTF-8 Plain Text
Duration : 2 h 55 min
Bit rate : 53 b/s
Count of elements : 2573
Stream size : 69.3 KiB (0%)
Title : SDH
Language : English
Default : No
Forced : No

Menu
00:00:00.000 : en:Chapter 01
00:12:01.220 : en:Chapter 02
00:23:21.650 : en:Chapter 03
00:31:54.078 : en:Chapter 04
00:41:44.502 : en:Chapter 05
00:51:36.676 : en:Chapter 06
01:00:12.900 : en:Chapter 07
01:10:32.394 : en:Chapter 08
01:18:35.085 : en:Chapter 09
01:29:14.474 : en:Chapter 10
01:42:33.063 : en:Chapter 11
01:52:16.896 : en:Chapter 12
01:58:20.927 : en:Chapter 13
02:09:39.605 : en:Chapter 14
02:21:14.382 : en:Chapter 15
02:27:31.342 : en:Chapter 16
02:38:36.089 : en:Chapter 17
02:46:58.675 : en:Chapter 18

pb.wtf



Скачать Бэтмен через торрент https://i1.imageban.ru/out/2022/05/14/05cb445ebb31c46e4f9c9a00628dd714.png Скачать, смотреть онлайн Бэтмен бесплантно в хорошем качестве Описание: После двух лет поисков правосудия на улицах Готэма для своих сограждан Бэтмен становится олицетворением беспощадного возмездия. ... 8.7 10 7
Торрент: Зарегистрирован [2022-05-27 15:55] · скачан: 116 раз
Статус: √ проверено
Размер: 8.67 GB
Как cкачать? Как скачать Бэтмен через торрент | UTorrent

% Раздел Тема Автор DL S | L
Фильмы [HD 720p, 1080p] (Хороший звук DUB, MVO) [ 16.97 GB ] Бэтмен / The Batman [2022 BDRip 1080p] bober100 Скачать
6 | 0
Фильмы 2022 [DVDrip, WEB-DLRip, HDrip] (DUB, MVO) [ 1.46 GB ] Бэтмен / The Batman [2022 BDRip] bober100 Скачать
6 | 0
Ultra HD (UHD: 2K, 4K, 8K) — видео сверхвысокой чёткости [ 69.04 GB ] Бэтмен / The Batman [2022 UHD BDRemux 2160p] 3xMVO [Jaskier HDRezka Studio TVShows] bober100 Скачать
5 | 0
Ultra HD (UHD: 2K, 4K, 8K) — видео сверхвысокой чёткости [ 74.59 GB ] Бэтмен / The Batman [2022 UHD BDRemux 2160p ] bober100 Скачать
1 | 0
Фильмы 2022 [DVDrip, WEB-DLRip, HDrip] (DUB, MVO) [ 3.48 GB ] Бэтмен / The Batman [2022 BDRip-AVC] bober100 Скачать
17 | 0
Фильмы 2022 [DVDrip, WEB-DLRip, HDrip] (DUB, MVO) [ 2.82 GB ] Бэтмен / The Batman [2022 BDRip] bober100 Скачать
6 | 0
Фильмы 2022 [DVDrip, WEB-DLRip, HDrip] (DUB, MVO) [ 1.46 GB ] Бэтмен / The Batman [2022 BDRip] MVO [HDRezka Studio] bober100 Скачать
4 | 0

28-11-2019 20:33  

Отключить всю рекламу на сайте

    Дорогой пользователь! Огромная просьба, поблагодарите релизера, оцените раздачу и оставьте свои комментарий, если Вы скачали Бэтмен через торрент бесплатно!
    Комментировать посты могут только пользователи прошедшие не сложную регистрацию
    Показать сообщения:    

    Бэтмен через торрент
    Скачать бесплатно Бэтмен
    Бэтмен скачать торрент
    Бэтмен смотреть онлайн
    Cкачать фильм Бэтмен бесплатно
    Бэтмен скачать торрент в хорошем качестве
    Бэтмен смотреть онлайн бесплатно в хорошем качестве


    Вы не можете начинать темы
    Вы не можете отвечать на сообщения
    Вы не можете редактировать свои сообщения
    Вы не можете удалять свои сообщения
    Вы не можете голосовать в опросах
    Вы не можете прикреплять файлы к сообщениям
    Вы можете скачивать файлы