Всегда рабочее зеркало без VPN и Proxy просто перед .vidak.icu напиши любое слово или цифру, Пример http://slh6.vidak.icu

Лицензия

MVO

1 сезон

1

1 сезон

iTunes

1 сезон

13

1 сезон

Deluxe

pack

Рекомендуем

Repack

30

ВАЖНО

RePack

MK11

RePack

jed

RePack

fifa19

RePack

RDR2

RePack

NEED FOR SPEED™ PAYBACK

Кинопоиск HD

6 сезон

 Острые козырьки 6 сезон

Все сериалы

все сериалы на PB.wtf

RePack

FAR CRY 5
  
Magnet ссылка

Оби-Ван Кеноби / Obi-Wan Kenobi / Сезон: 1 / Серии: 1-6 из 6 (Дебора Чоу) [2022, Фантастика, боевик, приключения, WEB-DL (HEVC)1080p] [MVO] (HDRezka Studio) + [AVO] (Ю.Сербин) + [Ukr MVO] (Цікава ідея) pb.wtf

Оби-Ван Кеноби через торрент pb.wtf

Раздают: 2 [ 855 KB/s ]
Размер: 14.15 GB | Добавлен: 1 мес. 17 д. назад | Торрент скачан:28 раз
Смотреть онлайн Оби-Ван Кеноби | Скачать    Ребята, помогите собрать деньги на оплату серверов!!!

28-05-2022 03:45 Оби-Ван Кеноби Скачать торрент  

Оби-Ван Кеноби / Obi-Wan Kenobi
Год выпуска: 2022
Страна: США
Жанр: Фантастика, боевик, приключения
Продолжительность : 1 x ~ 00:52:30
Перевод #1: Профессиональный (многоголосый) - HDRezka Studio
Перевод #2: Авторский (одноголосый закадровый) - Юрий Сербин
Перевод #3: Профессиональный (многоголосый) - Цікава ідея - Украинский
Субтитры: русские (Forced «HDRezka Studio», Full |«Где тексты Лебовски ?»), английские

Режиссёр: Дебора Чоу

В ролях: Хейден Кристенсен, Руперт Френд, Эван МакГрегор, Джоэл Эдгертон, Майя Эрскин, Кумэйл Нанджиани, Моусес Ингрэм, Бонни Пессе, Бенни Сэфди, О`Ши Джексон мл.
Описание: После главного и самого болезненного поражения в своей жизни, обратившего его лучшего друга в заклятого врага, Кеноби скрывается на Татуине. Меж тем охота на джедаев продолжается по всей галактике, и по следам уцелевших членов ордена идут верные слуги Империи.

rating

✦ Качество: WEB-DL (HEVC)1080p
✦ Формат: MKV
✦ Видео кодек: x.265
✦ Аудио кодек: AC3
✦ Видео: HEVC , 10bit, 1920x1080, 6 788 Kbps, 24,000 fps
✦ Аудио #1 Rus: AC3, 48 kHz, 6 ch, 448 kbps - HDRezka Studio
✦ Аудио #2 Rus: 48 kHz, AC3, 6 ch, 448 kbps | Юрий Сербин
✦ Аудио #3 Ukr: AC3, 48 kHz, 6 ch, 512 kbps - Цікава ідея
✦ Аудио #4 Eng: AC3, 48 kHz, 6 ch, 448 kbps|Original|
скриншот  скриншот  скриншот  скриншот  
General
Unique ID : 192363847122237319858880550528324289722 (0x90B7EDE9298D3C748D3F99F6131544BA)
Complete name : Obi-Wan Kenobi.s01.WEB-DL(HEVC)1080p.xz\Obi-Wan Kenobi.S01E01.WEB-DL(HEVC)1080p.[HDRezka Studio], [Serbin], [UKR].xz.mkv
Format : Matroska
Format version : Version 4
File size : 3.35 GiB
Duration : 52 min 28 s
Overall bit rate : 9 146 kb/s
Movie name : Obi-Wan Kenobi.S01E01.WEB-DL(HEVC)1080p.[HDRezka Studio], [Serbin], [UKR].xz
Encoded date : UTC 2022-06-09 06:23:03
Writing application : mkvmerge v6.1.0 ('Old Devil') built on Mar 2 2013 14:32:37
Writing library : libebml v1.3.0 + libmatroska v1.4.0

Video
ID : 1
Format : HEVC
Format/Info : High Efficiency Video Coding
Format profile : Main [email protected]@Main
Codec ID : V_MPEGH/ISO/HEVC
Duration : 52 min 28 s
Bit rate : 6 788 kb/s
Width : 1 920 pixels
Height : 1 080 pixels
Display aspect ratio : 16:9
Frame rate mode : Constant
Frame rate : 24.000 FPS
Color space : YUV
Chroma subsampling : 4:2:0
Bit depth : 10 bits
Bits/(Pixel*Frame) : 0.136
Stream size : 2.49 GiB (74%)
Title : Obi-Wan Kenobi.S01E01.WEB-DL(HEVC)1080p.[HDRezka Studio], [Serbin], [UKR].xz
Writing library : x265 3.5+37+12-4e46995bc:[Windows][MSVC 1931][64 bit] 10bit
Encoding settings : cpuid=1111039 / frame-threads=5 / numa-pools=32 / wpp / pmode / no-pme / no-psnr / no-ssim / log-level=2 / input-csp=1 / input-res=1920x1080 / interlace=0 / total-frames=37783 / level-idc=0 / high-tier=1 / uhd-bd=0 / ref=4 / no-allow-non-conformance / no-repeat-headers / annexb / no-aud / no-eob / no-eos / no-hrd / info / hash=0 / no-temporal-layers / open-gop / min-keyint=24 / keyint=250 / gop-lookahead=0 / bframes=16 / b-adapt=2 / b-pyramid / bframe-bias=0 / rc-lookahead=90 / lookahead-slices=4 / scenecut=40 / no-hist-scenecut / radl=0 / no-splice / no-intra-refresh / ctu=64 / min-cu-size=8 / no-rect / no-amp / max-tu-size=32 / tu-inter-depth=4 / tu-intra-depth=4 / limit-tu=0 / rdoq-level=2 / dynamic-rd=0.00 / no-ssim-rd / signhide / no-tskip / nr-intra=0 / nr-inter=0 / no-constrained-intra / no-strong-intra-smoothing / max-merge=5 / limit-refs=0 / limit-modes / me=3 / subme=7 / merange=92 / temporal-mvp / no-frame-dup / no-hme / weightp / no-weightb / no-analyze-src-pics / deblock=0:0 / sao / no-sao-non-deblock / rd=4 / selective-sao=4 / no-early-skip / rskip / no-fast-intra / no-tskip-fast / no-cu-lossless / no-b-intra / no-splitrd-skip / rdpenalty=0 / psy-rd=1.50 / psy-rdoq=1.00 / no-rd-refine / no-lossless / cbqpoffs=0 / crqpoffs=0 / rc=crf / crf=17.5 / qcomp=0.60 / qpstep=4 / stats-write=0 / stats-read=0 / ipratio=1.40 / pbratio=1.30 / aq-mode=5 / aq-strength=1.00 / aq-bias-strength=1.00 / cutree / zone-count=0 / no-strict-cbr / qg-size=32 / no-rc-grain / qpmax=69 / qpmin=0 / no-const-vbv / sar=0 / overscan=0 / videoformat=5 / range=0 / colorprim=1 / transfer=1 / colormatrix=1 / chromaloc=0 / display-window=0 / cll=0,0 / min-luma=0 / max-luma=1023 / log2-max-poc-lsb=8 / vui-timing-info / vui-hrd-info / slices=1 / no-opt-qp-pps / no-opt-ref-list-length-pps / no-multi-pass-opt-rps / scenecut-bias=0.05 / hist-threshold=0.03 / no-opt-cu-delta-qp / no-aq-motion / no-hdr10 / no-hdr10-opt / no-dhdr10-opt / no-idr-recovery-sei / analysis-reuse-level=0 / analysis-save-reuse-level=0 / analysis-load-reuse-level=0 / scale-factor=0 / refine-intra=0 / refine-inter=0 / refine-mv=1 / refine-ctu-distortion=0 / no-limit-sao / ctu-info=0 / no-lowpass-dct / refine-analysis-type=0 / copy-pic=1 / max-ausize-factor=1.0 / no-dynamic-refine / no-single-sei / no-hevc-aq / no-svt / no-field / qp-adaptation-range=1.00 / scenecut-aware-qp=0conformance-window-offsets / right=0 / bottom=0 / decoder-max-rate=0 / no-vbv-live-multi-pass
Language : English
Default : Yes
Forced : No
Color range : Limited
Color primaries : BT.709
Transfer characteristics : BT.709
Matrix coefficients : BT.709
Duration_Source : General_Duration

Audio #1
ID : 2
Format : AC-3
Format/Info : Audio Coding 3
Commercial name : Dolby Digital
Codec ID : A_AC3
Duration : 52 min 28 s
Bit rate mode : Constant
Bit rate : 448 kb/s
Channel(s) : 6 channels
Channel layout : L R C LFE Ls Rs
Sampling rate : 48.0 kHz
Frame rate : 31.250 FPS (1536 SPF)
Compression mode : Lossy
Stream size : 168 MiB (5%)
Title : HDR
Language : Russian
Service kind : Complete Main
Default : No
Forced : No
Duration_Source : General_Duration

Audio #2
ID : 3
Format : AC-3
Format/Info : Audio Coding 3
Commercial name : Dolby Digital
Codec ID : A_AC3
Duration : 52 min 28 s
Bit rate mode : Constant
Bit rate : 448 kb/s
Channel(s) : 6 channels
Channel layout : L R C LFE Ls Rs
Sampling rate : 48.0 kHz
Frame rate : 31.250 FPS (1536 SPF)
Compression mode : Lossy
Stream size : 168 MiB (5%)
Title : Serbin
Language : Russian
Service kind : Complete Main
Default : No
Forced : No
Statistics Tags Issue : mkvmerge v64.0.0 ('Willows') 64-bit 2022-05-29 10:09:00 / mkvmerge v6.1.0 ('Old Devil') built on Mar 2 2013 14:32:37 2022-06-09 06:23:03
FromStats_BitRate : 448000
FromStats_Duration : 00:52:28.639994976
FromStats_FrameCount : 98395
FromStats_StreamSize : 176323840
Duration_Source : General_Duration

Audio #3
ID : 4
Format : AC-3
Format/Info : Audio Coding 3
Commercial name : Dolby Digital
Codec ID : A_AC3
Duration : 52 min 28 s
Bit rate mode : Constant
Bit rate : 512 kb/s
Channel(s) : 6 channels
Channel layout : L R C LFE Ls Rs
Sampling rate : 48.0 kHz
Frame rate : 31.250 FPS (1536 SPF)
Compression mode : Lossy
Stream size : 192 MiB (6%)
Title : Цікава Ідея
Language : Ukrainian
Service kind : Complete Main
Default : No
Forced : No
Statistics Tags Issue : mkvmerge v50.0.0 ('Awakenings') 64-bit 2022-05-29 21:50:30 / mkvmerge v6.1.0 ('Old Devil') built on Mar 2 2013 14:32:37 2022-06-09 06:23:03
FromStats_BitRate : 512000
FromStats_Duration : 00:52:28.640000000
FromStats_FrameCount : 98395
FromStats_StreamSize : 201512960
Duration_Source : General_Duration

Audio #4
ID : 5
Format : E-AC-3 JOC
Format/Info : Enhanced AC-3 with Joint Object Coding
Commercial name : Dolby Digital Plus with Dolby Atmos
Codec ID : A_EAC3
Duration : 52 min 28 s
Bit rate mode : Constant
Bit rate : 768 kb/s
Channel(s) : 6 channels
Channel layout : L R C LFE Ls Rs
Sampling rate : 48.0 kHz
Frame rate : 31.250 FPS (1536 SPF)
Compression mode : Lossy
Delay relative to video : 8 ms
Stream size : 288 MiB (8%)
Language : English
Service kind : Complete Main
Default : No
Forced : No
Statistics Tags Issue : mkvmerge v67.0.0 ('Under Stars') 64-bit 2022-05-30 12:47:17 / mkvmerge v6.1.0 ('Old Devil') built on Mar 2 2013 14:32:37 2022-06-09 06:23:03
FromStats_BitRate : 768000
FromStats_Duration : 00:52:28.640000000
FromStats_FrameCount : 98395
FromStats_StreamSize : 302269440
Complexity index : 16
Number of dynamic objects : 15
Bed channel count : 1 channel
Bed channel configuration : LFE
Duration_Source : General_Duration

Text #1
ID : 6
Format : UTF-8
Codec ID : S_TEXT/UTF8
Codec ID/Info : UTF-8 Plain Text
Title : SDH
Language : English
Default : No
Forced : No
Statistics Tags Issue : mkvmerge v67.0.0 ('Under Stars') 64-bit 2022-05-30 12:47:17 / mkvmerge v6.1.0 ('Old Devil') built on Mar 2 2013 14:32:37 2022-06-09 06:23:03
FromStats_BitRate : 45
FromStats_Duration : 00:48:23.375000000
FromStats_FrameCount : 619
FromStats_StreamSize : 16445

Text #2
ID : 7
Format : UTF-8
Codec ID : S_TEXT/UTF8
Codec ID/Info : UTF-8 Plain Text
Title : FULL *Lebovsky
Language : Russian
Default : No
Forced : No

Text #3
ID : 8
Format : UTF-8
Codec ID : S_TEXT/UTF8
Codec ID/Info : UTF-8 Plain Text
Title : forced
Language : Russian
Default : No
Forced : No

Menu
00:00:04.292 : en:Recap
00:04:06.417 : en:End of Recap
Внимание! Раздача ведётся путём добавления новых серий; при каждом добавлении создаётся новый торрент. Чтобы начать докачку новой серии, пользователям необходимо сделать следующее:
(1) остановить скачивание,
(2) удалить старый торрент у себя из клиента (старые серии удалять не надо),
(3) скачать новый торрент и запустить его у себя в клиенте вместо старого, при этом указать клиенту путь в старую папку куда и должно происходить скачивание новых серий.

Ваш клиент при этом должен произвести хеширование (проверку) старой папки (если не производит сам - помогите ему сделать это), и будет докачивать только те серии которых у вас ещё нет. Старые серии при этом не удаляются, а продолжают раздаваться!

Eсли вы уже удалили старые серии, то предотвратить повторную закачку старых серий можно, отжав галочку в соответствующих местах при запуске нового торрента. По возможности, желательно не удалять старые серии как можно дольше чтобы релизёр не столько продолжал раздавать старые серии, а смог сконцентрироваться на новых.
pb.wtf



Скачать Оби-Ван Кеноби через торрент https://i120.fastpic.org/big/2022/0528/49/8d6525287566d50ebccbe53656f83349.jpg Скачать, смотреть онлайн Оби-Ван Кеноби бесплантно в хорошем качестве Описание: После главного и самого болезненного поражения в своей жизни, обратившего его лучшего друга в заклятого врага, Кеноби скрывается ... 10 10 15
Торрент: Зарегистрирован [2022-06-27 20:20] · скачан: 28 раз
Статус: √ проверено
Размер: 14.15 GB
Как cкачать? Как скачать Оби-Ван Кеноби через торрент | UTorrent

% Раздел Тема Автор DL S | L
Зарубежные сериалы [ 13.73 GB ] Оби-Ван Кеноби / Obi-Wan Kenobi / Сезон: 1 / Серии: 1-6 из 6 [2022 WEB-DL 1080p] MVO [HDRezka Studio] bober100 Скачать
6 | 1
Зарубежные сериалы [ 3.51 GB ] Оби-Ван Кеноби / Obi-Wan Kenobi / Сезон: 1 / Серии: 1-6 из 6 [2022 WEB-DLRip] MVO [HDRezka Studio] bober100 Скачать
1 | 2
Зарубежные сериалы [ 12.03 GB ] Оби-Ван Кеноби / Obi-Wan Kenobi / Сезон: 1 / Серии: 1-6 из 6 [2022 WEB-DL 1080p] DUB [Red Head Sound] bober100 Скачать
1 | 4
Зарубежные сериалы [ 16.26 GB ] Оби-Ван Кеноби / Obi-Wan Kenobi / Сезон: 1 / Серии: 1-6 из 6 [2022 WEB-DL 1080p] 3xMVO [LostFilm Alexfilm HDrezka Studio] +AVO [Ю. Сербин] bober100 Скачать
3 | 0
Зарубежные сериалы [ 14.08 GB ] Оби-Ван Кеноби / Obi-Wan Kenobi / Сезон: 1 / Серии: 1-6 из 6 [2022 WEB-DL 1080p] MVO [LostFilm] bober100 Скачать
13 | 0
Зарубежные сериалы [ 3.73 GB ] Оби-Ван Кеноби / Obi-Wan Kenobi / Сезон: 1 / Серии: 1-6 из 6 [2022 WEB-DLRip-AVC] MVO [HDRezka Studio] bober100 Скачать
12 | 3
Зарубежные сериалы [ 14.78 GB ] Оби-Ван Кеноби / Obi-Wan Kenobi / Сезон: 1 / Серии: 1-6 из 6 [2022 WEB-DL 1080p] MVO [AlexFilm] bober100 Скачать
3 | 2


Последний раз редактировалось: killermax2013 (2022-06-02 06:50), всего редактировалось 1 раз

28-11-2019 20:33  

Отключить вcю реклaмy на сайте

    Дорогой пользователь! Огромная просьба, поблагодарите релизера, оцените раздачу и оставьте свои комментарий, если Вы скачали Оби-Ван Кеноби через торрент бесплатно!
    Комментировать посты могут только пользователи прошедшие не сложную регистрацию
    Показать сообщения:    

    Оби-Ван Кеноби через торрент
    Скачать бесплатно Оби-Ван Кеноби
    Оби-Ван Кеноби скачать торрент
    Оби-Ван Кеноби смотреть онлайн
    Cкачать фильм Оби-Ван Кеноби бесплатно
    Оби-Ван Кеноби скачать торрент в хорошем качестве
    Оби-Ван Кеноби смотреть онлайн бесплатно в хорошем качестве


    Вы не можете начинать темы
    Вы не можете отвечать на сообщения
    Вы не можете редактировать свои сообщения
    Вы не можете удалять свои сообщения
    Вы не можете голосовать в опросах
    Вы не можете прикреплять файлы к сообщениям
    Вы можете скачивать файлы