Всегда рабочее зеркало без VPN и Proxy просто перед .vidak.icu напиши любое слово или цифру, Пример http://wxka.vidak.icu

MVO

Лицензия

1 сезон

1

1 сезон

iTunes

1 сезон

13

1 сезон

Deluxe

pack

Рекомендуем

Пиратка

30

ВАЖНО

RePack

MK11

RePack

jed

RePack

fifa19

RePack

RDR2

RePack

NEED FOR SPEED™ PAYBACK

Кинопоиск HD

6 сезон

 Острые козырьки 6 сезон

Все сериалы

все сериалы на PB.wtf

RePack

FAR CRY 5

Anonymous, нам критически не хватает 2100 руб. на оплату серверов и переферии за МАЙ, помоги нам пожалуйста, вся надежда только на тебя. В благодарность мы отключим тебе всю рекламу на сайте!

×
  
Magnet ссылка

Варяг / The Northman (Роберт Эггерс) [2022, Фэнтези, боевик, триллер, драма, приключения, история, BDRip 720p] 3xMVO (rus, ukr) [HDRezka Studio, Jaskier, NewComers] pb.wtf

Варяг через торрент pb.wtf

Раздают: 3 [ 0 KB/s ]
Размер: 8.32 GB | Добавлен: 28 д. назад | Торрент скачан:90 раз
Смотреть онлайн Варяг | Скачать    Ребята, помогите собрать деньги на оплату серверов!!!

28-05-2022 04:10 Варяг Скачать торрент  

Варяг
The Northman

Год выпуска: 2022
Страна: США
Выпущено: New Regency Productions, Focus Features, Perfect World Pictures
Жанр: Фэнтези, боевик, триллер, драма, приключения, история
Продолжительность: 02:16:53
Перевод:
#1: Профессиональный (многоголосый) | HDRezka Studio
#2: Профессиональный (многоголосый) | Jaskier
#3: Профессиональный (многоголосый) | NewComers
Субтитры: Русские (forced, full), украинские (Forced) , английские

Режиссер: Роберт Эггерс

rating

В ролях: Александр Скарсгард, Николь Кидман, Клас Банг, Итэн Хоук, Аня Тейлор-Джой, Густав Линд, Эллиотт Роуз, Уиллем Дефо, Фил Мартин, Эльдар Скар

Описание: Фильм основан на саге о Амлете из древнескандинавской хроники, записанной Саксоном Грамматиком. Сюжет рассказывает о том, как викинг Фьолнир убивает своего брата, конунга Хорвендила, и берёт в жёны его супругу Гудрун. Амлет, сын Хорвендила, скрывается и клянётся отомстить убийце отца. Когда Амлет становится старше, он объединяется со славянской ведьмой Ольгой, похищенной викингами, и стремится вернуться домой, чтобы убить Фьолнира.

Качество: BDRip 720p
Формат: MKV

Видео: MPEG-4 AVC, 1280x640, 6400 Kbit/s, 23.976 fps
Аудио #01: 48 kHz, AC3, 5.1, 448 Kbps | Профессиональный многоголосый | HDRezka Studio | RUS |
Аудио #02: 48 kHz, AC3, 5.1, 448 Kbps | Профессиональный многоголосый | Jaskier | RUS |
Аудио #03: 48 kHz, AC3, 5.1, 384 Kbps | Профессиональный многоголосый | NewComers | RUS |
Аудио #04: 48 kHz, AC3, 5.1, 384 Kbps | Профессиональный многоголосый | HDRezka Studio | UKR |
Аудио #05: 48 kHz, AC3, 5.1, 640 Kbps | Оригинал | ENG |
скриншот  скриншот  скриншот  скриншот  скриншот  

General
Unique ID : 93570869386728440334719104608809284945 (0x4665180BA0B16054502D0926DBE47551)
Complete name : E:Video1The.Northman.2022.BDRip.720p.seleZen.mkv
Format : Matroska
Format version : Version 4
File size : 8.32 GiB
Duration : 2 h 17 min
Overall bit rate : 8 699 kb/s
Movie name : The Northman 2022 from seleZen
Encoded date : UTC 2022-05-28 01:34:03
Writing application : mkvmerge v59.0.0 ('Shining Star') 64-bit
Writing library : libebml v1.4.2 + libmatroska v1.6.4

Video
ID : 1
Format : AVC
Format/Info : Advanced Video Codec
Format profile : High@L4.1
Format settings : CABAC / 10 Ref Frames
Format settings, CABAC : Yes
Format settings, Reference : 10 frames
Codec ID : V_MPEG4/ISO/AVC
Duration : 2 h 16 min
Bit rate : 6 400 kb/s
Width : 1 280 pixels
Height : 640 pixels
Display aspect ratio : 2.000
Frame rate mode : Constant
Frame rate : 23.976 (24000/1001) FPS
Color space : YUV
Chroma subsampling : 4:2:0
Bit depth : 8 bits
Scan type : Progressive
Bits/(Pixel*Frame) : 0.326
Stream size : 6.12 GiB (73%)
Writing library : x264 core 146 -from seleZen
Encoding settings : cabac=1 / ref=10 / deblock=1:-2:-2 / analyse=0x3:0x133 / me=umh / subme=10 / psy=1 / psy_rd=1.03:0.02 / mixed_ref=1 / me_range=32 / chroma_me=1 / trellis=2 / 8x8dct=1 / cqm=0 / deadzone=21, 11 / fast_pskip=0 / chroma_qp_offset=-3 / threads=48 / lookahead_threads=5 / sliced_threads=0 / nr=0 / decimate=0 / interlaced=0 / bluray_compat=0 / constrained_intra=0 / bframes=9 / b_pyramid=2 / b_adapt=2 / b_bias=0 / direct=3 / weightb=1 / open_gop=0 / weightp=2 / keyint=240 / keyint_min=23 / scenecut=40 / intra_refresh=0 / rc_lookahead=50 / rc=2pass / mbtree=0 / bitrate=6400 / ratetol=1.0 / qcomp=0.60 / qpmin=0 / qpmax=51 / qpstep=4 / cplxblur=20.0 / qblur=0.5 / vbv_maxrate=50000 / vbv_bufsize=62500 / nal_hrd=none / filler=0 / ip_ratio=1.40 / pb_ratio=1.30 / aq=3:0.80
Language : English
Default : Yes
Forced : No

Audio #1
ID : 2
Format : AC-3
Format/Info : Audio Coding 3
Commercial name : Dolby Digital
Codec ID : A_AC3
Duration : 2 h 17 min
Bit rate mode : Constant
Bit rate : 448 kb/s
Channel(s) : 6 channels
Channel layout : L R C LFE Ls Rs
Sampling rate : 48.0 kHz
Frame rate : 31.250 FPS (1536 SPF)
Compression mode : Lossy
Stream size : 439 MiB (5%)
Title : MVO [HDRezka Studio]
Language : Russian
Service kind : Complete Main
Default : Yes
Forced : Yes

Audio #2
ID : 3
Format : AC-3
Format/Info : Audio Coding 3
Commercial name : Dolby Digital
Codec ID : A_AC3
Duration : 2 h 17 min
Bit rate mode : Constant
Bit rate : 448 kb/s
Channel(s) : 6 channels
Channel layout : L R C LFE Ls Rs
Sampling rate : 48.0 kHz
Frame rate : 31.250 FPS (1536 SPF)
Compression mode : Lossy
Stream size : 439 MiB (5%)
Title : MVO [Jaskier]
Language : Russian
Service kind : Complete Main
Default : No
Forced : No

Audio #3
ID : 4
Format : AC-3
Format/Info : Audio Coding 3
Commercial name : Dolby Digital
Codec ID : A_AC3
Duration : 2 h 17 min
Bit rate mode : Constant
Bit rate : 384 kb/s
Channel(s) : 6 channels
Channel layout : L R C LFE Ls Rs
Sampling rate : 48.0 kHz
Frame rate : 31.250 FPS (1536 SPF)
Compression mode : Lossy
Stream size : 376 MiB (4%)
Title : MVO [NewComers]
Language : Russian
Service kind : Complete Main
Default : No
Forced : No

Audio #4
ID : 5
Format : AC-3
Format/Info : Audio Coding 3
Commercial name : Dolby Digital
Codec ID : A_AC3
Duration : 2 h 17 min
Bit rate mode : Constant
Bit rate : 384 kb/s
Channel(s) : 6 channels
Channel layout : L R C LFE Ls Rs
Sampling rate : 48.0 kHz
Frame rate : 31.250 FPS (1536 SPF)
Compression mode : Lossy
Stream size : 376 MiB (4%)
Title : MVO [HDRezka Studio]
Language : Ukrainian
Service kind : Complete Main
Default : No
Forced : No

Audio #5
ID : 6
Format : AC-3
Format/Info : Audio Coding 3
Commercial name : Dolby Digital
Codec ID : A_AC3
Duration : 2 h 16 min
Bit rate mode : Constant
Bit rate : 640 kb/s
Channel(s) : 6 channels
Channel layout : L R C LFE Ls Rs
Sampling rate : 48.0 kHz
Frame rate : 31.250 FPS (1536 SPF)
Compression mode : Lossy
Stream size : 627 MiB (7%)
Title : Original
Language : English
Service kind : Complete Main
Default : No
Forced : No

Text #1
ID : 7
Format : UTF-8
Codec ID : S_TEXT/UTF8
Codec ID/Info : UTF-8 Plain Text
Duration : 2 h 7 min
Bit rate : 2 b/s
Count of elements : 43
Stream size : 1.99 KiB (0%)
Title : Forced [HDRezka Studio]
Language : Russian
Default : Yes
Forced : Yes

Text #2
ID : 8
Format : UTF-8
Codec ID : S_TEXT/UTF8
Codec ID/Info : UTF-8 Plain Text
Duration : 2 h 0 min
Bit rate : 0 b/s
Count of elements : 8
Stream size : 196 Bytes (0%)
Title : Forced [NewComers]
Language : Russian
Default : No
Forced : No

Text #3
ID : 9
Format : UTF-8
Codec ID : S_TEXT/UTF8
Codec ID/Info : UTF-8 Plain Text
Duration : 2 h 8 min
Bit rate : 52 b/s
Count of elements : 1019
Stream size : 49.2 KiB (0%)
Title : Full [Cool Story Blog]
Language : Russian
Default : No
Forced : No

Text #4
ID : 10
Format : UTF-8
Codec ID : S_TEXT/UTF8
Codec ID/Info : UTF-8 Plain Text
Duration : 2 h 2 min
Bit rate : 2 b/s
Count of elements : 39
Stream size : 1.97 KiB (0%)
Title : Forced [HDRezka Studio]
Language : Ukrainian
Default : No
Forced : No

Text #5
ID : 11
Format : UTF-8
Codec ID : S_TEXT/UTF8
Codec ID/Info : UTF-8 Plain Text
Duration : 1 h 39 min
Bit rate : 1 b/s
Count of elements : 33
Stream size : 1.10 KiB (0%)
Title : Forced
Language : English
Default : No
Forced : No

Text #6
ID : 12
Format : UTF-8
Codec ID : S_TEXT/UTF8
Codec ID/Info : UTF-8 Plain Text
Duration : 2 h 7 min
Bit rate : 26 b/s
Count of elements : 979
Stream size : 25.1 KiB (0%)
Title : Full
Language : English
Default : No
Forced : No

Text #7
ID : 13
Format : UTF-8
Codec ID : S_TEXT/UTF8
Codec ID/Info : UTF-8 Plain Text
Duration : 2 h 7 min
Bit rate : 42 b/s
Count of elements : 1605
Stream size : 39.8 KiB (0%)
Title : SDH
Language : English
Default : No
Forced : No

Menu
00:00:00.000 : Chapter 01
00:08:53.992 : Chapter 02
00:15:47.613 : Chapter 03
00:22:04.615 : Chapter 04
00:30:23.697 : Chapter 05
00:39:44.340 : Chapter 06
00:46:18.401 : Chapter 07
00:51:43.267 : Chapter 08
00:58:14.032 : Chapter 09
01:05:22.335 : Chapter 10
01:11:55.019 : Chapter 11
01:16:49.563 : Chapter 12
01:23:36.094 : Chapter 13
01:27:16.690 : Chapter 14
01:35:42.862 : Chapter 15
01:41:02.390 : Chapter 16
01:46:38.225 : Chapter 17
01:55:44.855 : Chapter 18
02:01:06.968 : Chapter 19
02:08:41.255 : Chapter 20

pb.wtf



Скачать Варяг через торрент https://i117.fastpic.org/big/2022/0514/97/a31f70b514baab21136939e1a4d84897.jpg Скачать, смотреть онлайн Варяг бесплантно в хорошем качестве Описание: Фильм основан на саге о Амлете из древнескандинавской хроники, записанной Саксоном Грамматиком. Сюжет рассказывает о том, как ... 7.6 10 7
Торрент: Зарегистрирован [2022-05-28 04:10] · скачан: 90 раз
Статус: √ проверено
Размер: 8.32 GB
Как cкачать? Как скачать Варяг через торрент | UTorrent

% Раздел Тема Автор DL S | L
T Фильмы (мультфильмы) cо спонсором показа (Новинки AVI/MKV) [ 8.02 GB ] Варяг / The Northman [2022 история WEB-DL 1080p] DUB [звук с TS] bober100 Скачать
2 | 0
Фильмы [HD 720p, 1080p] (Хороший звук DUB, MVO) [ 14.24 GB ] Варяг / The Northman [2022 история BDRip 1080p] 3xMVO [HDRezka Studio Jaskier NewComers] bober100 Скачать
5 | 0
Фильмы 2022 [DVDrip, WEB-DLRip, HDrip] (DUB, MVO) [ 2.18 GB ] Варяг / The Northman [2022 история BDRip] MVO [HDRezka Studio] bober100 Скачать
3 | 0
Фильмы (Blu-ray, BD-Remux, HDDVD) [ 32.87 GB ] Варяг / The Northman [2022 история BD Remux 1080p] 3xMVO [HDRezka Studio Jaskier NewComers] bober100 Скачать
2 | 0
Фильмы 2022 [DVDrip, WEB-DLRip, HDrip] (DUB, MVO) [ 1.46 GB ] Варяг / The Northman [2022 история BDRip] MVO [HDRezka Studio] bober100 Скачать
12 | 0
Фильмы 2022 [DVDrip, WEB-DLRip, HDrip] (DUB, MVO) [ 3.73 GB ] Варяг / The Northman [2022 история HDRip-AVC] MVO [HDRezka Studio] bober100 Скачать
3 | 0
Фильмы 2022 [DVDrip, WEB-DLRip, HDrip] (DUB, MVO) [ 2.7 GB ] Варяг / The Northman [2022 история WEB-DLRip-AVC] MVO [NewComers] от ExKinoRay Lithuania Скачать
10 | 0

28-11-2019 20:33  

Отключить всю рекламу на сайте

31-05-2022 08:18 Варяг Скачать торрент  

редкое дерьмо , а не сага про викинговpb.wtf



    Дорогой пользователь! Огромная просьба, поблагодарите релизера, оцените раздачу и оставьте свои комментарий, если Вы скачали Варяг через торрент бесплатно!
    Комментировать посты могут только пользователи прошедшие не сложную регистрацию
    Показать сообщения:    

    Варяг через торрент
    Скачать бесплатно Варяг
    Варяг скачать торрент
    Варяг смотреть онлайн
    Cкачать фильм Варяг бесплатно
    Варяг скачать торрент в хорошем качестве
    Варяг смотреть онлайн бесплатно в хорошем качестве


    Вы не можете начинать темы
    Вы не можете отвечать на сообщения
    Вы не можете редактировать свои сообщения
    Вы не можете удалять свои сообщения
    Вы не можете голосовать в опросах
    Вы не можете прикреплять файлы к сообщениям
    Вы можете скачивать файлы