Всегда рабочее зеркало без VPN и Proxy просто перед .vidak.icu напиши любое слово или цифру, Пример http://0ykc.vidak.icu

MVO

MVO

1 сезон

1

1 сезон

iTunes

1 сезон

13

1 сезон

Deluxe

pack

Рекомендуем

Repack

30

ВАЖНО

RePack

MK11

RePack

jed

RePack

fifa19

RePack

RDR2

RePack

NEED FOR SPEED™ PAYBACK

Кинопоиск HD

6 сезон

 Острые козырьки 6 сезон

Все сериалы

все сериалы на PB.wtf

RePack

FAR CRY 5
  
Magnet ссылка

Оби-Ван Кеноби / Obi-Wan Kenobi / Сезон: 1 / Серии: 1-6 из 6 (Дебора Чоу) [2022, Фантастика, боевик, приключения, WEB-DL 1080p] MVO [HDRezka Studio] pb.wtf

Оби-Ван Кеноби через торрент pb.wtf

Раздают: 8 [ 198 KB/s ] Качают: 2 [ 0 KB/s ]
Размер: 13.73 GB | Добавлен: 1 мес. 16 д. назад | Торрент скачан:131 раз
Смотреть онлайн Оби-Ван Кеноби | Скачать    Ребята, помогите собрать деньги на оплату серверов!!!

28-05-2022 04:35 Оби-Ван Кеноби Скачать торрент  

Оби-Ван Кеноби | Obi-Wan Kenobi
«***»
Год выпуска: 2022
Страна: США
Выпущено: Lucasfilm Ltd., Walt Disney Studios
Жанр: Фантастика, боевик, приключения
Продолжительность: ~ 00:45:00 серия
Перевод: Профессиональный (многоголосый) | HDRezka Studio
Субтитры: Русские (Forced), английские (Full, SDH)

Режиссер: Дебора Чоу

rating

В ролях: Хейден Кристенсен (Hayden Christensen), Руперт Френд (Rupert Friend), Юэн Макгрегор (Ewan McGregor), Джоэл Эдгертон (Joel Edgerton), Майя Эрскин (Maya Erskine), Кумэйл Нанджиани (Kumail Nanjiani), Моусес Ингрэм (Moses Ingram), Бонни Пессе (Bonnie Piesse), Бенни Сэфди (Benny Safdie), О’Ши Джексон мл. (O'Shea Jackson Jr.), Сон Ган (Sung Kang), Симона Кэссел (Simone Kessell)

Описание: Мастер-джедай Оби-Ван Кеноби (Юэн Макгрегор) живет в изгнании на пустынном Татуине, где присматривает за совсем еще юным Люком Скайуокером (Грант Фили). Бен старается не привлекать к себе внимание, перебиваясь низкооплачиваемыми заработками, однако обстоятельства вынуждают его выйти из тени.

Качество: WEB-DL 1080p
Формат: MKV

Видео: 1920x1080 (16:9), 24, 000 fps, AVC (х264), [email protected], ~6679 kbps avg, 0.134 bit/pixel
Аудио RUS: 48 kHz, AC3, 3/2 (L, C, R, l, r) + LFE ch, ~448 kbps
Аудио ENG: 48 kHz, E-AC-3 JOC, 3/2 (L, C, R, l, r) + LFE ch, ~768 kbps

Общее
Уникальный идентификатор : 47807666847801531406347390849455610939 (0x23F76BF589778B607E0A01642B7DDC3B)
Полное имя : Obi-Wan.Kenobi.2022.S01E01.WEB-DL.1080p.DSNP.HDREZKA.STUDIO.mkv
Формат : Matroska
Версия формата : Version 4
Размер файла : 2, 89 Гбайт
Продолжительность : 52 м. 28 с.
Режим общего битрейта : Переменный
Общий поток : 7 898 Кбит/сек
Дата кодирования : UTC 2022-05-28 03:15:09
Программа кодирования : mkvmerge v66.0.0 ('Josie') 64-bit
Библиотека кодирования : libebml v1.4.2 + libmatroska v1.6.4

Видео
Идентификатор : 1
Формат : AVC
Формат/Информация : Advanced Video Codec
Профиль формата : [email protected]
Настройки формата : CABAC / 4 Ref Frames
Параметр CABAC формата : Да
Параметр RefFrames формата : 4 кадра
Идентификатор кодека : V_MPEG4/ISO/AVC
Продолжительность : 52 м. 28 с.
Вид битрейта : Переменный
Битрейт : 6 679 Кбит/сек
Максимальный битрейт : 12, 7 Мбит/сек
Ширина : 1 920 пикселей
Высота : 1 080 пикселей
Соотношение сторон : 16:9
Режим частоты кадров : Постоянный
Частота кадров : 24, 000 кадра/сек
Цветовое пространство : YUV
Субдискретизация насыщенности : 4:2:0
Битовая глубина : 8 бит
Тип развёртки : Прогрессивная
Бит/(Пиксели*Кадры) : 0.134
Размер потока : 2, 45 Гбайт (85%)
Default : Да
Forced : Нет
Цветовой диапазон : Limited
Основные цвета : BT.709
Характеристики трансфера : BT.709
Коэффициенты матрицы : BT.709

Аудио #1
Идентификатор : 2
Формат : AC-3
Формат/Информация : Audio Coding 3
Коммерческое название : Dolby Digital
Идентификатор кодека : A_AC3
Продолжительность : 52 м. 28 с.
Вид битрейта : Постоянный
Битрейт : 448 Кбит/сек
Каналы : 6 каналов
Channel layout : L R C LFE Ls Rs
Частота : 48, 0 КГц
Частота кадров : 31, 250 кадров/сек (1536 SPF)
Метод сжатия : С потерями
Размер потока : 168 Мбайт (6%)
Язык : Russian
Default : Да
Forced : Нет

Аудио #2
Идентификатор : 3
Формат : E-AC-3 JOC
Формат/Информация : Enhanced AC-3 with Joint Object Coding
Коммерческое название : Dolby Digital Plus with Dolby Atmos
Идентификатор кодека : A_EAC3
Продолжительность : 52 м. 28 с.
Вид битрейта : Постоянный
Битрейт : 768 Кбит/сек
Каналы : 6 каналов
Channel layout : L R C LFE Ls Rs
Частота : 48, 0 КГц
Частота кадров : 31, 250 кадров/сек (1536 SPF)
Метод сжатия : С потерями
Размер потока : 288 Мбайт (10%)
Язык : English
Default : Нет
Forced : Нет
Complexity index : 16
Number of dynamic objects : 15
Bed channel count : 1 канал
Bed channel configuration : LFE

Текст #1
Идентификатор : 4
Формат : UTF-8
Идентификатор кодека : S_TEXT/UTF8
Идентификатор кодека/Информация : UTF-8 Plain Text
Продолжительность : 48 м. 46 с.
Битрейт : 2 бит/сек
Count of elements : 23
Размер потока : 1, 00 Кбайт (0%)
Заголовок : Forced
Язык : Russian
Default : Нет
Forced : Нет

Текст #2
Идентификатор : 5
Формат : UTF-8
Идентификатор кодека : S_TEXT/UTF8
Идентификатор кодека/Информация : UTF-8 Plain Text
Продолжительность : 47 м. 44 с.
Битрейт : 36 бит/сек
Count of elements : 476
Размер потока : 12, 7 Кбайт (0%)
Язык : English
Default : Нет
Forced : Нет

Текст #3
Идентификатор : 6
Формат : UTF-8
Идентификатор кодека : S_TEXT/UTF8
Идентификатор кодека/Информация : UTF-8 Plain Text
Продолжительность : 48 м. 23 с.
Битрейт : 45 бит/сек
Count of elements : 619
Размер потока : 16, 1 Кбайт (0%)
Заголовок : SDH
Язык : English
Default : Нет
Forced : Нет

Меню
00:00:04.292 : en:Recap
00:04:06.417 : en:End of Recap
00:52:30.167 : en:Credits

Когда раздача ведётся путём добавления новых серий, при каждом добавлении создётся новый торрент. Чтобы начать докачку новой серии, пользователям необходимо сделать следующее:
(1) остановить скачивание,
(2) удалить старый торрент у себя из клиента (старые серии удалять не надо),
(3) скачать новый торрент и запустить его у себя в клиенте вместо старого, при этом указать клиенту путь в старую папку, куда и должно происходить скачивание новых серий.
Ваш клиент при этом должен произвести хеширование (проверку) старой папки (если не производит сам - помогите ему сделать это), и будет докачивать только те серии, которых у вас ещё нет. Старые серии при этом не удаляются, а продолжают раздаваться!
Eсли вы уже удалили старые серии, то предотвратить повторную закачку старых серий можно, отжав галочку в соответсвующих местах при запуске нового торрента. По возможности, желательно не удалять старые серии как можно дольше, чтобы релизёр не столько продолжал раздавать старые серии, а смог сконцентрироваться на новых.

pb.wtf



Скачать Оби-Ван Кеноби через торрент https://i120.fastpic.org/big/2022/0528/fb/f81cc33d5f27db4da9e821cfc54922fb.jpeg Скачать, смотреть онлайн Оби-Ван Кеноби бесплантно в хорошем качестве Описание: Мастер-джедай Оби-Ван Кеноби (Юэн Макгрегор) живет в изгнании на пустынном Татуине, где присматривает за совсем еще юным Люком ... 10 10 24
Info! Золотая раздача, скачанное не засчитывается.
Торрент: Зарегистрирован [2022-06-24 02:47] · скачан: 131 раз
Статус: √ проверено
Размер: 13.73 GB
Как cкачать? Как скачать Оби-Ван Кеноби через торрент | UTorrent

% Раздел Тема Автор DL S | L
Зарубежные сериалы [ 3.51 GB ] Оби-Ван Кеноби / Obi-Wan Kenobi / Сезон: 1 / Серии: 1-6 из 6 [2022 WEB-DLRip] MVO [HDRezka Studio] bober100 Скачать
3 | 0
Зарубежные сериалы [ 12.03 GB ] Оби-Ван Кеноби / Obi-Wan Kenobi / Сезон: 1 / Серии: 1-6 из 6 [2022 WEB-DL 1080p] DUB [Red Head Sound] bober100 Скачать
5 | 2
Зарубежные сериалы [ 16.26 GB ] Оби-Ван Кеноби / Obi-Wan Kenobi / Сезон: 1 / Серии: 1-6 из 6 [2022 WEB-DL 1080p] 3xMVO [LostFilm Alexfilm HDrezka Studio] +AVO [Ю. Сербин] bober100 Скачать
6 | 0
Зарубежные сериалы [ 14.08 GB ] Оби-Ван Кеноби / Obi-Wan Kenobi / Сезон: 1 / Серии: 1-6 из 6 [2022 WEB-DL 1080p] MVO [LostFilm] bober100 Скачать
24 | 3
Зарубежные сериалы [ 3.73 GB ] Оби-Ван Кеноби / Obi-Wan Kenobi / Сезон: 1 / Серии: 1-6 из 6 [2022 WEB-DLRip-AVC] MVO [HDRezka Studio] bober100 Скачать
13 | 2
Зарубежные сериалы [ 14.78 GB ] Оби-Ван Кеноби / Obi-Wan Kenobi / Сезон: 1 / Серии: 1-6 из 6 [2022 WEB-DL 1080p] MVO [AlexFilm] bober100 Скачать
6 | 1
Зарубежные сериалы [ 9.54 GB ] Оби-Ван Кеноби / Obi-Wan Kenobi / Сезон: 1 / Серии: 1-6 из 6 [2022 WEB-DL 720p] [MVO] + [AVO] + [Ukr MVO] killermax2013 Скачать
9 | 0


Последний раз редактировалось: bober100 (2022-06-24 02:47), всего редактировалось 4 раз(а)

28-11-2019 20:33  

Отключить вcю реклaмy на сайте

29-05-2022 05:44 Оби-Ван Кеноби Скачать торрент  

В сравнении с теми же Мандалорцем и Феттом - начало слабое, да и опять же сюжет словно повторяет Мандалорца - там наемник не у дел бегает с baby Yoda, здесь джедай на пенсии бегает с мелкой Леей.pb.wtf



23-06-2022 14:14 Оби-Ван Кеноби Скачать торрент  

bakerman писал(а):

В сравнении с теми же Мандалорцем и Феттом - начало слабое, да и опять же сюжет словно повторяет Мандалорца - там наемник не у дел бегает с baby Yoda, здесь джедай на пенсии бегает с мелкой Леей.

Мягко говоря слабое, этот сериал просто ужас, Фетт и Мандалорца интересно было смотреть, там как то все развивалось и персонажи не были такими картонными, а здесь Оби-Балван, похож на уставшего бомжа, 3-я сильная и независимая сестра, у которой экранного времени чуть ли не половина, а история ее просто дно. Вейдер, которого никто не боится, да и он как манекен. Лея просто раздражает. Вообщем посмотрите, кто писал сценарий, все сразу и отпадет.pb.wtf



24-06-2022 00:27 Оби-Ван Кеноби Скачать торрент  

Сплошное разочарование.pb.wtf



    Дорогой пользователь! Огромная просьба, поблагодарите релизера, оцените раздачу и оставьте свои комментарий, если Вы скачали Оби-Ван Кеноби через торрент бесплатно!
    Комментировать посты могут только пользователи прошедшие не сложную регистрацию
    Показать сообщения:    

    Оби-Ван Кеноби через торрент
    Скачать бесплатно Оби-Ван Кеноби
    Оби-Ван Кеноби скачать торрент
    Оби-Ван Кеноби смотреть онлайн
    Cкачать фильм Оби-Ван Кеноби бесплатно
    Оби-Ван Кеноби скачать торрент в хорошем качестве
    Оби-Ван Кеноби смотреть онлайн бесплатно в хорошем качестве


    Вы не можете начинать темы
    Вы не можете отвечать на сообщения
    Вы не можете редактировать свои сообщения
    Вы не можете удалять свои сообщения
    Вы не можете голосовать в опросах
    Вы не можете прикреплять файлы к сообщениям
    Вы можете скачивать файлы