Всегда рабочее зеркало без VPN и Proxy просто перед .vidak.icu напиши любое слово или цифру, Пример http://tijn.vidak.icu

Лицензия

MVO

1 сезон

1

1 сезон

iTunes

1 сезон

13

1 сезон

Deluxe

pack

Рекомендуем

Repack

30

ВАЖНО

RePack

MK11

RePack

jed

RePack

fifa19

RePack

RDR2

RePack

NEED FOR SPEED™ PAYBACK

Кинопоиск HD

6 сезон

 Острые козырьки 6 сезон

Все сериалы

все сериалы на PB.wtf

RePack

FAR CRY 5
  
Magnet ссылка

Оби-Ван Кеноби / Obi-Wan Kenobi / Сезон: 1 / Серии: 1-6 из 6 (Дебора Чоу) [2022, Фантастика, боевик, приключения, WEB-DL 720p] [MVO] (HDRezka Studio) + [AVO] (Ю.Сербин) + [Ukr MVO] (Цікава ідея) pb.wtf

Оби-Ван Кеноби через торрент pb.wtf

Раздают: 5 [ 0 KB/s ]
Размер: 9.54 GB | Добавлен: 1 мес. 17 д. назад | Торрент скачан:74 раза
Смотреть онлайн Оби-Ван Кеноби | Скачать    Ребята, помогите собрать деньги на оплату серверов!!!

28-05-2022 04:40 Оби-Ван Кеноби Скачать торрент  

Оби-Ван Кеноби / Obi-Wan Kenobi
Год выпуска: 2022
Страна: США
Жанр: Фантастика, боевик, приключения
Продолжительность : 1 x ~ 00:52:30
Перевод #1: Профессиональный (многоголосый) - HDRezka Studio
Перевод #2: Авторский (одноголосый закадровый) - Юрий Сербин
Перевод #3: Профессиональный (многоголосый) - Цікава ідея - Украинский
Субтитры: русские (Forced «HDRezka Studio», Full |«Где тексты Лебовски ?»), английские

Режиссёр: Дебора Чоу

В ролях: Хейден Кристенсен, Руперт Френд, Эван МакГрегор, Джоэл Эдгертон, Майя Эрскин, Кумэйл Нанджиани, Моусес Ингрэм, Бонни Пессе, Бенни Сэфди, О`Ши Джексон мл.
Описание: После главного и самого болезненного поражения в своей жизни, обратившего его лучшего друга в заклятого врага, Кеноби скрывается на Татуине. Меж тем охота на джедаев продолжается по всей галактике, и по следам уцелевших членов ордена идут верные слуги Империи.

rating

✦ Качество: WEB-DL 720p
✦ Формат: MKV
✦ Видео кодек: x.264
✦ Аудио кодек: AC3
✦ Видео: AVC, 1280x720, 3 000 Kbps, 24,000 fps
✦ Аудио #1 Rus: AC3, 48 kHz, 6 ch, 448 kbps - HDRezka Studio
✦ Аудио #2 Rus: 48 kHz, AC3, 6 ch, 448 kbps | Юрий Сербин
✦ Аудио #3 Ukr: AC3, 48 kHz, 6 ch, 512 kbps - Цікава ідея
✦ Аудио #4 Eng: AC3, 48 kHz, 6 ch, 448 kbps|Original|
скриншот  скриншот  скриншот  скриншот  
General
Unique ID : 243140187008664440284710398495488551383 (0xB6EB18C04EE4C0D8B2A04D14E28129D7)
Complete name : Obi-Wan Kenobi.s01.WEB-DL720p.xz\Obi-Wan Kenobi.S01E01.WEB-DL720p.[HDRezka Studio], [Serbin], [UKR].xz.mkv
Format : Matroska
Format version : Version 4
File size : 1.93 GiB
Duration : 52 min 28 s
Overall bit rate mode : Variable
Overall bit rate : 5 268 kb/s
Movie name : Obi-Wan Kenobi.S01E01.WEB-DL720p.[HDRezka Studio], [Serbin], [UKR].xz
Encoded date : UTC 2022-06-05 18:37:00
Writing application : mkvmerge v6.1.0 ('Old Devil') built on Mar 2 2013 14:32:37
Writing library : libebml v1.3.0 + libmatroska v1.4.0

Video
ID : 1
Format : AVC
Format/Info : Advanced Video Codec
Format profile : [email protected]
Format settings : CABAC / 4 Ref Frames
Format settings, CABAC : Yes
Format settings, Reference : 4 frames
Codec ID : V_MPEG4/ISO/AVC
Duration : 52 min 28 s
Bit rate mode : Variable
Bit rate : 2 987 kb/s
Maximum bit rate : 6 375 kb/s
Width : 1 280 pixels
Height : 720 pixels
Display aspect ratio : 16:9
Frame rate mode : Constant
Frame rate : 24.000 FPS
Color space : YUV
Chroma subsampling : 4:2:0
Bit depth : 8 bits
Scan type : Progressive
Bits/(Pixel*Frame) : 0.135
Stream size : 1.09 GiB (57%)
Title : Obi-Wan Kenobi.S01E01.WEB-DL720p.[HDRezka Studio], [Serbin], [UKR].xz
Language : English
Default : Yes
Forced : No
Color range : Limited
Color primaries : BT.709
Transfer characteristics : BT.709
Matrix coefficients : BT.709
Statistics Tags Issue : mkvmerge v67.0.0 ('Under Stars') 64-bit / mkvmerge v6.1.0 ('Old Devil') built on Mar 2 2013 14:32:37 2022-06-05 18:37:00
FromStats_BitRate : 3088961
FromStats_Duration : 00:52:28.625000000
FromStats_FrameCount : 75567
FromStats_StreamSize : 1215747498
Duration_Source : General_Duration

Audio #1
ID : 2
Format : AC-3
Format/Info : Audio Coding 3
Commercial name : Dolby Digital
Codec ID : A_AC3
Duration : 52 min 28 s
Bit rate mode : Constant
Bit rate : 448 kb/s
Channel(s) : 6 channels
Channel layout : L R C LFE Ls Rs
Sampling rate : 48.0 kHz
Frame rate : 31.250 FPS (1536 SPF)
Compression mode : Lossy
Stream size : 168 MiB (9%)
Title : HDR
Language : Russian
Service kind : Complete Main
Default : No
Forced : No
Duration_Source : General_Duration

Audio #2
ID : 3
Format : AC-3
Format/Info : Audio Coding 3
Commercial name : Dolby Digital
Codec ID : A_AC3
Duration : 52 min 28 s
Bit rate mode : Constant
Bit rate : 448 kb/s
Channel(s) : 6 channels
Channel layout : L R C LFE Ls Rs
Sampling rate : 48.0 kHz
Frame rate : 31.250 FPS (1536 SPF)
Compression mode : Lossy
Stream size : 168 MiB (9%)
Title : Serbin
Language : Russian
Service kind : Complete Main
Default : No
Forced : No
Statistics Tags Issue : mkvmerge v64.0.0 ('Willows') 64-bit 2022-05-29 10:09:00 / mkvmerge v6.1.0 ('Old Devil') built on Mar 2 2013 14:32:37 2022-06-05 18:37:00
FromStats_BitRate : 448000
FromStats_Duration : 00:52:28.639994976
FromStats_FrameCount : 98395
FromStats_StreamSize : 176323840
Duration_Source : General_Duration

Audio #3
ID : 4
Format : AC-3
Format/Info : Audio Coding 3
Commercial name : Dolby Digital
Codec ID : A_AC3
Duration : 52 min 28 s
Bit rate mode : Constant
Bit rate : 512 kb/s
Channel(s) : 6 channels
Channel layout : L R C LFE Ls Rs
Sampling rate : 48.0 kHz
Frame rate : 31.250 FPS (1536 SPF)
Compression mode : Lossy
Stream size : 192 MiB (10%)
Title : Цікава Ідея
Language : Ukrainian
Service kind : Complete Main
Default : No
Forced : No
Statistics Tags Issue : mkvmerge v50.0.0 ('Awakenings') 64-bit 2022-05-29 21:50:30 / mkvmerge v6.1.0 ('Old Devil') built on Mar 2 2013 14:32:37 2022-06-05 18:37:00
FromStats_BitRate : 512000
FromStats_Duration : 00:52:28.640000000
FromStats_FrameCount : 98395
FromStats_StreamSize : 201512960
Duration_Source : General_Duration

Audio #4
ID : 5
Format : E-AC-3 JOC
Format/Info : Enhanced AC-3 with Joint Object Coding
Commercial name : Dolby Digital Plus with Dolby Atmos
Codec ID : A_EAC3
Duration : 52 min 28 s
Bit rate mode : Constant
Bit rate : 768 kb/s
Channel(s) : 6 channels
Channel layout : L R C LFE Ls Rs
Sampling rate : 48.0 kHz
Frame rate : 31.250 FPS (1536 SPF)
Compression mode : Lossy
Stream size : 288 MiB (15%)
Language : English
Service kind : Complete Main
Default : No
Forced : No
Statistics Tags Issue : mkvmerge v67.0.0 ('Under Stars') 64-bit / mkvmerge v6.1.0 ('Old Devil') built on Mar 2 2013 14:32:37 2022-06-05 18:37:00
FromStats_BitRate : 768000
FromStats_Duration : 00:52:28.640000000
FromStats_FrameCount : 98395
FromStats_StreamSize : 302269440
Complexity index : 16
Number of dynamic objects : 15
Bed channel count : 1 channel
Bed channel configuration : LFE
Duration_Source : General_Duration

Text #1
ID : 6
Format : UTF-8
Codec ID : S_TEXT/UTF8
Codec ID/Info : UTF-8 Plain Text
Title : English (SDH)
Language : English
Default : No
Forced : No
Statistics Tags Issue : mkvmerge v67.0.0 ('Under Stars') 64-bit / mkvmerge v6.1.0 ('Old Devil') built on Mar 2 2013 14:32:37 2022-06-05 18:37:00
FromStats_BitRate : 45
FromStats_Duration : 00:48:23.375000000
FromStats_FrameCount : 619
FromStats_StreamSize : 16423

Text #2
ID : 7
Format : UTF-8
Codec ID : S_TEXT/UTF8
Codec ID/Info : UTF-8 Plain Text
Title : FULL *Lebovsky
Language : Russian
Default : No
Forced : No

Text #3
ID : 8
Format : UTF-8
Codec ID : S_TEXT/UTF8
Codec ID/Info : UTF-8 Plain Text
Title : forced
Language : Russian
Default : No
Forced : No
Внимание! Раздача ведётся путём добавления новых серий; при каждом добавлении создаётся новый торрент. Чтобы начать докачку новой серии, пользователям необходимо сделать следующее:
(1) остановить скачивание,
(2) удалить старый торрент у себя из клиента (старые серии удалять не надо),
(3) скачать новый торрент и запустить его у себя в клиенте вместо старого, при этом указать клиенту путь в старую папку куда и должно происходить скачивание новых серий.

Ваш клиент при этом должен произвести хеширование (проверку) старой папки (если не производит сам - помогите ему сделать это), и будет докачивать только те серии которых у вас ещё нет. Старые серии при этом не удаляются, а продолжают раздаваться!

Eсли вы уже удалили старые серии, то предотвратить повторную закачку старых серий можно, отжав галочку в соответствующих местах при запуске нового торрента. По возможности, желательно не удалять старые серии как можно дольше чтобы релизёр не столько продолжал раздавать старые серии, а смог сконцентрироваться на новых.
pb.wtf



Скачать Оби-Ван Кеноби через торрент https://i120.fastpic.org/big/2022/0528/49/8d6525287566d50ebccbe53656f83349.jpg Скачать, смотреть онлайн Оби-Ван Кеноби бесплантно в хорошем качестве Описание: После главного и самого болезненного поражения в своей жизни, обратившего его лучшего друга в заклятого врага, Кеноби скрывается ... 10 10 14
Торрент: Зарегистрирован [2022-06-27 20:35] · скачан: 74 раз
Статус: √ проверено
Размер: 9.54 GB
Как cкачать? Как скачать Оби-Ван Кеноби через торрент | UTorrent

% Раздел Тема Автор DL S | L
Зарубежные сериалы [ 13.73 GB ] Оби-Ван Кеноби / Obi-Wan Kenobi / Сезон: 1 / Серии: 1-6 из 6 [2022 WEB-DL 1080p] MVO [HDRezka Studio] bober100 Скачать
8 | 1
Зарубежные сериалы [ 3.51 GB ] Оби-Ван Кеноби / Obi-Wan Kenobi / Сезон: 1 / Серии: 1-6 из 6 [2022 WEB-DLRip] MVO [HDRezka Studio] bober100 Скачать
1 | 2
Зарубежные сериалы [ 12.03 GB ] Оби-Ван Кеноби / Obi-Wan Kenobi / Сезон: 1 / Серии: 1-6 из 6 [2022 WEB-DL 1080p] DUB [Red Head Sound] bober100 Скачать
2 | 4
Зарубежные сериалы [ 16.26 GB ] Оби-Ван Кеноби / Obi-Wan Kenobi / Сезон: 1 / Серии: 1-6 из 6 [2022 WEB-DL 1080p] 3xMVO [LostFilm Alexfilm HDrezka Studio] +AVO [Ю. Сербин] bober100 Скачать
3 | 0
Зарубежные сериалы [ 14.08 GB ] Оби-Ван Кеноби / Obi-Wan Kenobi / Сезон: 1 / Серии: 1-6 из 6 [2022 WEB-DL 1080p] MVO [LostFilm] bober100 Скачать
12 | 0
Зарубежные сериалы [ 3.73 GB ] Оби-Ван Кеноби / Obi-Wan Kenobi / Сезон: 1 / Серии: 1-6 из 6 [2022 WEB-DLRip-AVC] MVO [HDRezka Studio] bober100 Скачать
12 | 3
Зарубежные сериалы [ 14.78 GB ] Оби-Ван Кеноби / Obi-Wan Kenobi / Сезон: 1 / Серии: 1-6 из 6 [2022 WEB-DL 1080p] MVO [AlexFilm] bober100 Скачать
3 | 2

28-11-2019 20:33  

Отключить вcю реклaмy на сайте

    Дорогой пользователь! Огромная просьба, поблагодарите релизера, оцените раздачу и оставьте свои комментарий, если Вы скачали Оби-Ван Кеноби через торрент бесплатно!
    Комментировать посты могут только пользователи прошедшие не сложную регистрацию
    Показать сообщения:    

    Оби-Ван Кеноби через торрент
    Скачать бесплатно Оби-Ван Кеноби
    Оби-Ван Кеноби скачать торрент
    Оби-Ван Кеноби смотреть онлайн
    Cкачать фильм Оби-Ван Кеноби бесплатно
    Оби-Ван Кеноби скачать торрент в хорошем качестве
    Оби-Ван Кеноби смотреть онлайн бесплатно в хорошем качестве


    Вы не можете начинать темы
    Вы не можете отвечать на сообщения
    Вы не можете редактировать свои сообщения
    Вы не можете удалять свои сообщения
    Вы не можете голосовать в опросах
    Вы не можете прикреплять файлы к сообщениям
    Вы можете скачивать файлы