Всегда рабочее зеркало без VPN и Proxy просто перед .vidak.icu напиши любое слово или цифру, Пример http://tyfo.vidak.icu

Лицензия

MVO

1 сезон

1

1 сезон

iTunes

1 сезон

13

1 сезон

Deluxe

pack

Рекомендуем

Repack

30

ВАЖНО

RePack

MK11

RePack

jed

RePack

fifa19

RePack

RDR2

RePack

NEED FOR SPEED™ PAYBACK

Кинопоиск HD

6 сезон

 Острые козырьки 6 сезон

Все сериалы

все сериалы на PB.wtf

RePack

FAR CRY 5
  
Magnet ссылка

Оби-Ван Кеноби / Obi-Wan Kenobi / Сезон: 1 / Серии: 1-6 из 6 (Дебора Чоу) [2022, Фантастика, боевик, приключения, WEB-DLRip] MVO [HDRezka Studio] pb.wtf

Оби-Ван Кеноби через торрент pb.wtf

Качают: 2 [ 0 KB/s ]
Размер: 3.51 GB | Добавлен: 1 мес. 17 д. назад | Торрент скачан:70 раз
Смотреть онлайн Оби-Ван Кеноби | Скачать    Ребята, помогите собрать деньги на оплату серверов!!!

28-05-2022 07:29 Оби-Ван Кеноби Скачать торрент  

Оби-Ван Кеноби | Obi-Wan Kenobi
«***»
Год выпуска: 2022
Страна: США
Выпущено: Lucasfilm Ltd., Walt Disney Studios
Жанр: Фантастика, боевик, приключения
Продолжительность: ~ 00:45:00 серия
Перевод: Профессиональный (многоголосый) | HDRezka Studio
Субтитры: Русские (forced, full *Где тексты Лебовски ?*)

Режиссер: Дебора Чоу

rating

В ролях: Хейден Кристенсен (Hayden Christensen), Руперт Френд (Rupert Friend), Юэн Макгрегор (Ewan McGregor), Джоэл Эдгертон (Joel Edgerton), Майя Эрскин (Maya Erskine), Кумэйл Нанджиани (Kumail Nanjiani), Моусес Ингрэм (Moses Ingram), Бонни Пессе (Bonnie Piesse), Бенни Сэфди (Benny Safdie), О’Ши Джексон мл. (O'Shea Jackson Jr.), Сон Ган (Sung Kang), Симона Кэссел (Simone Kessell)

Описание: Мастер-джедай Оби-Ван Кеноби (Юэн Макгрегор) живет в изгнании на пустынном Татуине, где присматривает за совсем еще юным Люком Скайуокером (Грант Фили). Бен старается не привлекать к себе внимание, перебиваясь низкооплачиваемыми заработками, однако обстоятельства вынуждают его выйти из тени.

Качество: WEB-DLRip
Формат: AVI

Видео: 720x304 (2.35:1), 24.000 FPS, XviD, 1600 Kbps, 0.305 bit/pixel
Аудио RUS: AC3, 48.0 KHz, 2 ch, 192 kbps
Аудио ENG: AC3, 48.0 KHz, 2 ch, 192 kbps
скриншот  скриншот  скриншот  скриншот  

General
Complete name : Downloads\Obi-Wan.Kenobi.S01.WEB-DLRip.HDrezka Studio\Obi-Wan.Kenobi.S01.E01.WEB-DLRip.Rus.Eng.by.Сибиряк.avi
Format : AVI
Format/Info : Audio Video Interleave
File size : 750 MiB
Duration : 52 min 28 s
Overall bit rate : 1 998 kb/s
Writing application : VirtualDubMod 1.5.10.2 (build 2540/release)
Writing library : VirtualDubMod build 2540/release
Video #0
ID : 0
Format : MPEG-4 Visual
Format profile : Advanced [email protected]
Format settings : BVOP1
Format settings, BVOP : 1
Format settings, QPel : No
Format settings, GMC : No warppoints
Format settings, Matrix : Default (H.263)
Codec ID : XVID
Codec ID/Hint : XviD
Duration : 52 min 28 s
Bit rate : 1 600 kb/s
Width : 720 pixels
Height : 304 pixels
Display aspect ratio : 2.35:1
Frame rate : 24.000 FPS
Color space : YUV
Chroma subsampling : 4:2:0
Bit depth : 8 bits
Scan type : Progressive
Compression mode : Lossy
Bits/(Pixel*Frame) : 0.305
Stream size : 600 MiB (80%)
Writing library : XviD 69
Audio #1
ID : 1
Format : AC-3
Format/Info : Audio Coding 3
Codec ID : 2000
Duration : 52 min 28 s
Bit rate mode : Constant
Bit rate : 192 kb/s
Channel(s) : 2 channels
Channel positions : Front: L R
Sampling rate : 48.0 kHz
Frame rate : 31.250 FPS (1536 SPF)
Bit depth : 16 bits
Compression mode : Lossy
Stream size : 72.1 MiB (10%)
Alignment : Split accross interleaves
Interleave, duration : 42 ms (1.00 video frame)
Interleave, preload duration : 500 ms
Service kind : Complete Main
Audio #2
ID : 2
Format : AC-3
Format/Info : Audio Coding 3
Codec ID : 2000
Duration : 52 min 28 s
Bit rate mode : Constant
Bit rate : 192 kb/s
Channel(s) : 2 channels
Channel positions : Front: L R
Sampling rate : 48.0 kHz
Frame rate : 31.250 FPS (1536 SPF)
Bit depth : 16 bits
Compression mode : Lossy
Stream size : 72.1 MiB (10%)
Alignment : Split accross interleaves
Interleave, duration : 42 ms (1.00 video frame)
Interleave, preload duration : 500 ms
Service kind : Complete Main

Когда раздача ведётся путём добавления новых серий, при каждом добавлении создётся новый торрент. Чтобы начать докачку новой серии, пользователям необходимо сделать следующее:
(1) остановить скачивание,
(2) удалить старый торрент у себя из клиента (старые серии удалять не надо),
(3) скачать новый торрент и запустить его у себя в клиенте вместо старого, при этом указать клиенту путь в старую папку, куда и должно происходить скачивание новых серий.
Ваш клиент при этом должен произвести хеширование (проверку) старой папки (если не производит сам - помогите ему сделать это), и будет докачивать только те серии, которых у вас ещё нет. Старые серии при этом не удаляются, а продолжают раздаваться!
Eсли вы уже удалили старые серии, то предотвратить повторную закачку старых серий можно, отжав галочку в соответсвующих местах при запуске нового торрента. По возможности, желательно не удалять старые серии как можно дольше, чтобы релизёр не столько продолжал раздавать старые серии, а смог сконцентрироваться на новых.

pb.wtf



Скачать Оби-Ван Кеноби через торрент https://i120.fastpic.org/big/2022/0528/fb/f81cc33d5f27db4da9e821cfc54922fb.jpeg Скачать, смотреть онлайн Оби-Ван Кеноби бесплантно в хорошем качестве Описание: Мастер-джедай Оби-Ван Кеноби (Юэн Макгрегор) живет в изгнании на пустынном Татуине, где присматривает за совсем еще юным Люком ... 9.3 10 12
Торрент: Зарегистрирован [2022-06-27 16:13] · скачан: 70 раз
Статус: √ проверено
Размер: 3.51 GB
Как cкачать? Как скачать Оби-Ван Кеноби через торрент | UTorrent

% Раздел Тема Автор DL S | L
Зарубежные сериалы [ 13.73 GB ] Оби-Ван Кеноби / Obi-Wan Kenobi / Сезон: 1 / Серии: 1-6 из 6 [2022 WEB-DL 1080p] MVO [HDRezka Studio] bober100 Скачать
6 | 2
Зарубежные сериалы [ 12.03 GB ] Оби-Ван Кеноби / Obi-Wan Kenobi / Сезон: 1 / Серии: 1-6 из 6 [2022 WEB-DL 1080p] DUB [Red Head Sound] bober100 Скачать
1 | 3
Зарубежные сериалы [ 16.26 GB ] Оби-Ван Кеноби / Obi-Wan Kenobi / Сезон: 1 / Серии: 1-6 из 6 [2022 WEB-DL 1080p] 3xMVO [LostFilm Alexfilm HDrezka Studio] +AVO [Ю. Сербин] bober100 Скачать
3 | 0
Зарубежные сериалы [ 14.08 GB ] Оби-Ван Кеноби / Obi-Wan Kenobi / Сезон: 1 / Серии: 1-6 из 6 [2022 WEB-DL 1080p] MVO [LostFilm] bober100 Скачать
13 | 0
Зарубежные сериалы [ 3.73 GB ] Оби-Ван Кеноби / Obi-Wan Kenobi / Сезон: 1 / Серии: 1-6 из 6 [2022 WEB-DLRip-AVC] MVO [HDRezka Studio] bober100 Скачать
12 | 2
Зарубежные сериалы [ 14.78 GB ] Оби-Ван Кеноби / Obi-Wan Kenobi / Сезон: 1 / Серии: 1-6 из 6 [2022 WEB-DL 1080p] MVO [AlexFilm] bober100 Скачать
3 | 1
Зарубежные сериалы [ 9.54 GB ] Оби-Ван Кеноби / Obi-Wan Kenobi / Сезон: 1 / Серии: 1-6 из 6 [2022 WEB-DL 720p] [MVO] + [AVO] + [Ukr MVO] killermax2013 Скачать
6 | 0


Последний раз редактировалось: bober100 (2022-06-27 16:13), всего редактировалось 2 раз(а)

28-11-2019 20:33  

Отключить вcю реклaмy на сайте

28-05-2022 12:33 Оби-Ван Кеноби Скачать торрент  

Никто ничего не напишет что ли?pb.wtf



04-06-2022 08:10 Оби-Ван Кеноби Скачать торрент  

БОГАТЫРЬ писал(а):

Никто ничего не напишет что ли?

Пока отлично, как будто звездные войны новый эпизод смотрюpb.wtf



09-06-2022 13:29 Оби-Ван Кеноби Скачать торрент  

Storm067 писал(а):

БОГАТЫРЬ писал(а):

Никто ничего не напишет что ли?

Пока отлично, как будто звездные войны новый эпизод смотрю

Этого я и боялся.pb.wtf



    Дорогой пользователь! Огромная просьба, поблагодарите релизера, оцените раздачу и оставьте свои комментарий, если Вы скачали Оби-Ван Кеноби через торрент бесплатно!
    Комментировать посты могут только пользователи прошедшие не сложную регистрацию
    Показать сообщения:    

    Оби-Ван Кеноби через торрент
    Скачать бесплатно Оби-Ван Кеноби
    Оби-Ван Кеноби скачать торрент
    Оби-Ван Кеноби смотреть онлайн
    Cкачать фильм Оби-Ван Кеноби бесплатно
    Оби-Ван Кеноби скачать торрент в хорошем качестве
    Оби-Ван Кеноби смотреть онлайн бесплатно в хорошем качестве


    Вы не можете начинать темы
    Вы не можете отвечать на сообщения
    Вы не можете редактировать свои сообщения
    Вы не можете удалять свои сообщения
    Вы не можете голосовать в опросах
    Вы не можете прикреплять файлы к сообщениям
    Вы можете скачивать файлы