Всегда рабочее зеркало без VPN и Proxy просто перед .vidak.icu напиши любое слово или цифру, Пример http://awg6.vidak.icu

MVO

MVO

1 сезон

1

1 сезон

iTunes

1 сезон

13

1 сезон

Deluxe

pack

Рекомендуем

Repack

30

ВАЖНО

RePack

MK11

RePack

jed

RePack

fifa19

RePack

RDR2

RePack

NEED FOR SPEED™ PAYBACK

Кинопоиск HD

6 сезон

 Острые козырьки 6 сезон

Все сериалы

все сериалы на PB.wtf

RePack

FAR CRY 5
  
Magnet ссылка

Оби-Ван Кеноби / Obi-Wan Kenobi / Сезон: 1 / Серии: 1-6 из 6 (Дебора Чоу) [2022, Фантастика, боевик, приключения, WEB-DLRip-AVC] MVO [HDRezka Studio] pb.wtf

Оби-Ван Кеноби через торрент pb.wtf

Раздают: 11 [ 140 KB/s ] Качают: 2 [ 0 KB/s ]
Размер: 3.73 GB | Добавлен: 1 мес. 16 д. назад | Торрент скачан:185 раз
Смотреть онлайн Оби-Ван Кеноби | Скачать    Ребята, помогите собрать деньги на оплату серверов!!!

28-05-2022 15:12 Оби-Ван Кеноби Скачать торрент  

Оби-Ван Кеноби | Obi-Wan Kenobi
«***»
Год выпуска: 2022
Страна: США
Выпущено: Lucasfilm Ltd., Walt Disney Studios
Жанр: Фантастика, боевик, приключения
Продолжительность: ~ 00:45:00 серия
Перевод: Профессиональный (многоголосый) | HDRezka Studio
Субтитры: Русские (Forced)

Режиссер: Дебора Чоу

rating

В ролях: Хейден Кристенсен (Hayden Christensen), Руперт Френд (Rupert Friend), Юэн Макгрегор (Ewan McGregor), Джоэл Эдгертон (Joel Edgerton), Майя Эрскин (Maya Erskine), Кумэйл Нанджиани (Kumail Nanjiani), Моусес Ингрэм (Moses Ingram), Бонни Пессе (Bonnie Piesse), Бенни Сэфди (Benny Safdie), О’Ши Джексон мл. (O'Shea Jackson Jr.), Сон Ган (Sung Kang), Симона Кэссел (Simone Kessell)

Описание: Мастер-джедай Оби-Ван Кеноби (Юэн Макгрегор) живет в изгнании на пустынном Татуине, где присматривает за совсем еще юным Люком Скайуокером (Грант Фили). Бен старается не привлекать к себе внимание, перебиваясь низкооплачиваемыми заработками, однако обстоятельства вынуждают его выйти из тени.

Качество: WEB-DLRip-AVC
Формат: MKV

Видео: MPEG-4 AVC, 1024x428 at 24.000 fps, [email protected], ~1600 kbps
Аудио RUS: 48 kHz, AC3, 3/2 (L, C, R, l, r) + LFE ch, ~448 kbps
скриншот  скриншот  скриншот  скриншот  скриншот  скриншот  

[x264] frame I:477 Avg QP:13.17 size: 65072
[x264] frame P:11338 Avg QP:16.65 size: 19168
[x264] frame B:43917 Avg QP:17.80 size: 4908

General
Unique ID : 201867556835065842024883217016434722326 (0x97DE46F9EA24E4509A68BD07F0CC0616)
Complete name : E:Obi-Wan.Kenobi.2022.S01E02.mkv
Format : Matroska
Format version : Version 4
File size : 567 MiB
Duration : 38 min 42 s
Overall bit rate : 2 048 kb/s
Encoded date : UTC 2022-05-28 14:40:48
Writing application : mkvmerge v63.0.0 ('Everything') 64-bit
Writing library : libebml v1.4.2 + libmatroska v1.6.4
Cover : Yes
Attachments : cover.jpg / cover 2.jpg

Video
ID : 1
Format : AVC
Format/Info : Advanced Video Codec
Format profile : [email protected]
Format settings : CABAC / 10 Ref Frames
Format settings, CABAC : Yes
Format settings, Reference : 10 frames
Codec ID : V_MPEG4/ISO/AVC
Duration : 38 min 42 s
Bit rate : 1 600 kb/s
Width : 1 024 pixels
Height : 428 pixels
Display aspect ratio : 2.40:1
Frame rate mode : Constant
Frame rate : 24.000 FPS
Color space : YUV
Chroma subsampling : 4:2:0
Bit depth : 8 bits
Scan type : Progressive
Bits/(Pixel*Frame) : 0.152
Stream size : 442 MiB (78%)
Title : -=DoMiNo=-
Writing library : x264 core 163
Encoding settings : cabac=1 / ref=10 / deblock=1:-2:-2 / analyse=0x3:0x133 / me=umh / subme=10 / psy=1 / psy_rd=1.00:0.00 / mixed_ref=1 / me_range=32 / chroma_me=1 / trellis=2 / 8x8dct=1 / cqm=0 / deadzone=21,11 / fast_pskip=0 / chroma_qp_offset=-2 / threads=17 / lookahead_threads=3 / sliced_threads=0 / nr=0 / decimate=0 / interlaced=0 / bluray_compat=0 / constrained_intra=0 / bframes=10 / b_pyramid=2 / b_adapt=2 / b_bias=0 / direct=3 / weightb=1 / open_gop=0 / weightp=2 / keyint=240 / keyint_min=24 / scenecut=40 / intra_refresh=0 / rc_lookahead=80 / rc=2pass / mbtree=0 / bitrate=1600 / ratetol=1.0 / qcomp=0.65 / qpmin=0 / qpmax=69 / qpstep=4 / cplxblur=20.0 / qblur=0.5 / vbv_maxrate=50000 / vbv_bufsize=62500 / nal_hrd=none / filler=0 / ip_ratio=1.40 / pb_ratio=1.30 / aq=3:0.80
Language : English
Default : Yes
Forced : No
Color range : Limited
Color primaries : BT.709
Transfer characteristics : BT.709
Matrix coefficients : BT.709

Audio
ID : 2
Format : AC-3
Format/Info : Audio Coding 3
Commercial name : Dolby Digital
Codec ID : A_AC3
Duration : 38 min 42 s
Bit rate mode : Constant
Bit rate : 448 kb/s
Channel(s) : 6 channels
Channel layout : L R C LFE Ls Rs
Sampling rate : 48.0 kHz
Frame rate : 31.250 FPS (1536 SPF)
Bit depth : 16 bits
Compression mode : Lossy
Stream size : 124 MiB (22%)
Title : HDRezka Studio
Language : Russian
Service kind : Complete Main
Default : Yes
Forced : No

Text
ID : 3
Format : UTF-8
Codec ID : S_TEXT/UTF8
Codec ID/Info : UTF-8 Plain Text
Duration : 34 min 52 s
Bit rate : 0 b/s
Count of elements : 2
Stream size : 132 Bytes (0%)
Title : Forced
Language : Russian
Default : Yes
Forced : No

Menu
00:00:04.000 : :Recap
00:01:21.250 : :End of Recap
00:01:21.875 : :Intro
00:01:47.667 : :End of Intro
00:38:43.667 : :Credits

Когда раздача ведётся путём добавления новых серий, при каждом добавлении создётся новый торрент. Чтобы начать докачку новой серии, пользователям необходимо сделать следующее:
(1) остановить скачивание,
(2) удалить старый торрент у себя из клиента (старые серии удалять не надо),
(3) скачать новый торрент и запустить его у себя в клиенте вместо старого, при этом указать клиенту путь в старую папку, куда и должно происходить скачивание новых серий.
Ваш клиент при этом должен произвести хеширование (проверку) старой папки (если не производит сам - помогите ему сделать это), и будет докачивать только те серии, которых у вас ещё нет. Старые серии при этом не удаляются, а продолжают раздаваться!
Eсли вы уже удалили старые серии, то предотвратить повторную закачку старых серий можно, отжав галочку в соответсвующих местах при запуске нового торрента. По возможности, желательно не удалять старые серии как можно дольше, чтобы релизёр не столько продолжал раздавать старые серии, а смог сконцентрироваться на новых.

pb.wtf



Скачать Оби-Ван Кеноби через торрент https://i120.fastpic.org/big/2022/0528/fb/f81cc33d5f27db4da9e821cfc54922fb.jpeg Скачать, смотреть онлайн Оби-Ван Кеноби бесплантно в хорошем качестве Описание: Мастер-джедай Оби-Ван Кеноби (Юэн Макгрегор) живет в изгнании на пустынном Татуине, где присматривает за совсем еще юным Люком ... 10 10 14
Info! Золотая раздача, скачанное не засчитывается.
Торрент: Зарегистрирован [2022-06-24 02:48] · скачан: 185 раз
Статус: √ проверено
Размер: 3.73 GB
Как cкачать? Как скачать Оби-Ван Кеноби через торрент | UTorrent

% Раздел Тема Автор DL S | L
Зарубежные сериалы [ 13.73 GB ] Оби-Ван Кеноби / Obi-Wan Kenobi / Сезон: 1 / Серии: 1-6 из 6 [2022 WEB-DL 1080p] MVO [HDRezka Studio] bober100 Скачать
9 | 2
Зарубежные сериалы [ 3.51 GB ] Оби-Ван Кеноби / Obi-Wan Kenobi / Сезон: 1 / Серии: 1-6 из 6 [2022 WEB-DLRip] MVO [HDRezka Studio] bober100 Скачать
3 | 0
Зарубежные сериалы [ 12.03 GB ] Оби-Ван Кеноби / Obi-Wan Kenobi / Сезон: 1 / Серии: 1-6 из 6 [2022 WEB-DL 1080p] DUB [Red Head Sound] bober100 Скачать
6 | 3
Зарубежные сериалы [ 16.26 GB ] Оби-Ван Кеноби / Obi-Wan Kenobi / Сезон: 1 / Серии: 1-6 из 6 [2022 WEB-DL 1080p] 3xMVO [LostFilm Alexfilm HDrezka Studio] +AVO [Ю. Сербин] bober100 Скачать
5 | 0
Зарубежные сериалы [ 14.08 GB ] Оби-Ван Кеноби / Obi-Wan Kenobi / Сезон: 1 / Серии: 1-6 из 6 [2022 WEB-DL 1080p] MVO [LostFilm] bober100 Скачать
20 | 3
Зарубежные сериалы [ 14.78 GB ] Оби-Ван Кеноби / Obi-Wan Kenobi / Сезон: 1 / Серии: 1-6 из 6 [2022 WEB-DL 1080p] MVO [AlexFilm] bober100 Скачать
6 | 1
Зарубежные сериалы [ 9.54 GB ] Оби-Ван Кеноби / Obi-Wan Kenobi / Сезон: 1 / Серии: 1-6 из 6 [2022 WEB-DL 720p] [MVO] + [AVO] + [Ukr MVO] killermax2013 Скачать
7 | 0

28-11-2019 20:33  

Отключить вcю реклaмy на сайте

    Дорогой пользователь! Огромная просьба, поблагодарите релизера, оцените раздачу и оставьте свои комментарий, если Вы скачали Оби-Ван Кеноби через торрент бесплатно!
    Комментировать посты могут только пользователи прошедшие не сложную регистрацию
    Показать сообщения:    

    Оби-Ван Кеноби через торрент
    Скачать бесплатно Оби-Ван Кеноби
    Оби-Ван Кеноби скачать торрент
    Оби-Ван Кеноби смотреть онлайн
    Cкачать фильм Оби-Ван Кеноби бесплатно
    Оби-Ван Кеноби скачать торрент в хорошем качестве
    Оби-Ван Кеноби смотреть онлайн бесплатно в хорошем качестве


    Вы не можете начинать темы
    Вы не можете отвечать на сообщения
    Вы не можете редактировать свои сообщения
    Вы не можете удалять свои сообщения
    Вы не можете голосовать в опросах
    Вы не можете прикреплять файлы к сообщениям
    Вы можете скачивать файлы