Всегда рабочее зеркало без VPN и Proxy просто перед .vidak.icu напиши любое слово или цифру, Пример http://9pek.vidak.icu

Лицензия

MVO

1 сезон

1

1 сезон

iTunes

1 сезон

13

1 сезон

Deluxe

pack

Рекомендуем

Repack

30

ВАЖНО

RePack

MK11

RePack

jed

RePack

fifa19

RePack

RDR2

RePack

NEED FOR SPEED™ PAYBACK

Кинопоиск HD

6 сезон

 Острые козырьки 6 сезон

Все сериалы

все сериалы на PB.wtf

RePack

FAR CRY 5
  
Magnet ссылка

Оби-Ван Кеноби / Obi-Wan Kenobi / Сезон: 1 / Серии: 1-6 из 6 (Дебора Чоу) [2022, Фантастика, боевик, приключения, WEB-DL 1080p] 3xMVO [LostFilm, Alexfilm, HDrezka Studio] +AVO [Ю. Сербин] pb.wtf

Оби-Ван Кеноби через торрент pb.wtf

Качают: 1 [ 0 KB/s ]
Размер: 16.26 GB | Добавлен: 1 мес. 17 д. назад | Торрент скачан:81 раз
Смотреть онлайн Оби-Ван Кеноби | Скачать    Ребята, помогите собрать деньги на оплату серверов!!!

29-05-2022 03:33 Оби-Ван Кеноби Скачать торрент  

Оби-Ван Кеноби | Obi-Wan Kenobi
«***»
Год выпуска: 2022
Страна: США
Выпущено: Lucasfilm Ltd., Walt Disney Studios
Жанр: Фантастика, боевик, приключения
Продолжительность: ~ 00:45:00 серия
Перевод:
- Профессиональный (многоголосый закадровый) | LostFilm
- Профессиональный (многоголосый закадровый) | Alexfilm
- Профессиональный (многоголосый закадровый) | HDrezka Studio
- Авторский (одноголосый закадровый) | Ю. Сербин
Субтитры: Русские (Forced-|HDrezka Studio|, Full-|«Где тексты, Лебовски?»|, английские (Full, SDH)

Режиссер: Дебора Чоу

rating

В ролях: Хейден Кристенсен (Hayden Christensen), Руперт Френд (Rupert Friend), Юэн Макгрегор (Ewan McGregor), Джоэл Эдгертон (Joel Edgerton), Майя Эрскин (Maya Erskine), Кумэйл Нанджиани (Kumail Nanjiani), Моусес Ингрэм (Moses Ingram), Бонни Пессе (Bonnie Piesse), Бенни Сэфди (Benny Safdie), О’Ши Джексон мл. (O'Shea Jackson Jr.), Сон Ган (Sung Kang), Симона Кэссел (Simone Kessell)

Описание: Десять лет прошло с тех пор, как Владыка Ситх захватил Влacть в Империи, орден рыцарей-джедаев был практически полностью истреблен, а Оби-Ван Кеноби (Юэн МакГрегор) пустился в бега. Теперь он скрывается в пещерах Татуина, не использует Силу и пытается не попасться Третьей сестре (Моусес Ингрэм), которая в составе Инквизитория охотится за оставшимися в живых джедаями. Издалека Кеноби приглядывает за сыном Дарта Вейдера (Хейден Кристенсен) — сорванцом Люком, которого воспитывают дядя Оуэн (Джоэл Эдгертон) и тетя Беру (Бонни Пессе). Так бы Оби-Ван и вел жизнь раскаивающегося и раздираемого чувством вины отшельника, если бы однажды к нему не заявился сам сенатор Бейл Органа (Джимми Смитс). Он напоминает, что Кеноби дал клятву умирающей Падме защищать не только Люка, но и его сестру Лею, которая была похищена. Придется Оби-Вану простить себя, вновь взяться за световой меч и выстоять в новой встрече со своим некогда верным падаваном и напарником, а теперь могущественным и безжалостным Дартом Вейдером.

Качество: WEB-DL 1080p
Формат: MKV

Видео: AVC, 1920 x 1080 (1.778), 24,000 fps, ~6 679 kbps
Аудио Rus: AC-3, 48 kHz, 2 ch, 384 kbps |LostFilm|
Аудио Rus: AC-3, 48 kHz, 6 ch, 384 kbps |Alexfilm|
Аудио Rus: AC-3, 48 kHz, 6 ch, 448 kbps |HDrezka Studio|
Аудио Rus: AC-3, 48 kHz, 6 ch, 448 kbps |Ю. Сербин|
Аудио Eng: E-AC-3, 48 kHz, 6 ch, 768 kbps |Original|
скриншот  скриншот  скриншот  скриншот  

Общее
Уникальный идентификатор : 46830280753032836681846051909560110046 (0x233B2F1AAA5BF6C775A20E2A7E630BDE)
Полное имя : E:\_Сериалы\_Сериалы\Оби-Ван Кеноби\Obi-Wan.Kenobi.S01.WEBDL.1080p.Rus.Eng\Obi-Wan.Kenobi.S01E01.WEBDL.1080p.RGzsRutracker.mkv
Формат : Matroska
Версия формата : Version 4
Размер файла : 3,43 Гбайт
Продолжительность : 52 м. 28 с.
Режим общего битрейта : Переменный
Общий поток : 9 371 Кбит/сек
Дата кодирования : UTC 2022-05-30 19:03:21
Программа кодирования : mkvmerge v68.0.0 ('The Curtain') 64-bit
Библиотека кодирования : libebml v1.4.2 + libmatroska v1.6.4

Видео
Идентификатор : 1
Формат : AVC
Формат/Информация : Advanced Video Codec
Профиль формата : [email protected]
Настройки формата : CABAC / 4 Ref Frames
Параметр CABAC формата : Да
Параметр RefFrames формата : 4 кадра
Идентификатор кодека : V_MPEG4/ISO/AVC
Продолжительность : 52 м. 28 с.
Вид битрейта : Переменный
Битрейт : 6 679 Кбит/сек
Максимальный битрейт : 12,7 Мбит/сек
Ширина : 1 920 пикселей
Высота : 1 080 пикселей
Соотношение сторон : 16:9
Режим частоты кадров : Постоянный
Частота кадров : 24,000 кадра/сек
Цветовое пространство : YUV
Субдискретизация насыщенности : 4:2:0
Битовая глубина : 8 бит
Тип развёртки : Прогрессивная
Бит/(Пиксели*Кадры) : 0.134
Размер потока : 2,45 Гбайт (71%)
Язык : English
Default : Да
Forced : Нет
Цветовой диапазон : Limited
Основные цвета : BT.709
Характеристики трансфера : BT.709
Коэффициенты матрицы : BT.709

Аудио #1
Идентификатор : 2
Формат : AC-3
Формат/Информация : Audio Coding 3
Коммерческое название : Dolby Digital
Идентификатор кодека : A_AC3
Продолжительность : 52 м. 28 с.
Вид битрейта : Постоянный
Битрейт : 640 Кбит/сек
Каналы : 6 каналов
Channel layout : L R C LFE Ls Rs
Частота : 48,0 КГц
Частота кадров : 31,250 кадров/сек (1536 SPF)
Метод сжатия : С потерями
Размер потока : 240 Мбайт (7%)
Заголовок : LF
Язык : Russian
Service kind : Complete Main
Default : Да
Forced : Нет

Аудио #2
Идентификатор : 3
Формат : AC-3
Формат/Информация : Audio Coding 3
Коммерческое название : Dolby Digital
Идентификатор кодека : A_AC3
Продолжительность : 52 м. 28 с.
Вид битрейта : Постоянный
Битрейт : 384 Кбит/сек
Каналы : 6 каналов
Channel layout : L R C LFE Ls Rs
Частота : 48,0 КГц
Частота кадров : 31,250 кадров/сек (1536 SPF)
Метод сжатия : С потерями
Размер потока : 144 Мбайт (4%)
Заголовок : AF
Язык : Russian
Service kind : Complete Main
Default : Нет
Forced : Нет

Аудио #3
Идентификатор : 4
Формат : AC-3
Формат/Информация : Audio Coding 3
Коммерческое название : Dolby Digital
Идентификатор кодека : A_AC3
Продолжительность : 52 м. 28 с.
Вид битрейта : Постоянный
Битрейт : 448 Кбит/сек
Каналы : 6 каналов
Channel layout : L R C LFE Ls Rs
Частота : 48,0 КГц
Частота кадров : 31,250 кадров/сек (1536 SPF)
Метод сжатия : С потерями
Размер потока : 168 Мбайт (5%)
Заголовок : HDr
Язык : Russian
Service kind : Complete Main
Default : Нет
Forced : Нет

Аудио #4
Идентификатор : 5
Формат : AC-3
Формат/Информация : Audio Coding 3
Коммерческое название : Dolby Digital
Идентификатор кодека : A_AC3
Продолжительность : 52 м. 28 с.
Вид битрейта : Постоянный
Битрейт : 448 Кбит/сек
Каналы : 6 каналов
Channel layout : L R C LFE Ls Rs
Частота : 48,0 КГц
Частота кадров : 31,250 кадров/сек (1536 SPF)
Метод сжатия : С потерями
Размер потока : 168 Мбайт (5%)
Заголовок : Serbin
Язык : Russian
Service kind : Complete Main
Default : Нет
Forced : Нет

Аудио #5
Идентификатор : 6
Формат : E-AC-3 JOC
Формат/Информация : Enhanced AC-3 with Joint Object Coding
Коммерческое название : Dolby Digital Plus with Dolby Atmos
Идентификатор кодека : A_EAC3
Продолжительность : 52 м. 28 с.
Вид битрейта : Постоянный
Битрейт : 768 Кбит/сек
Каналы : 6 каналов
Channel layout : L R C LFE Ls Rs
Частота : 48,0 КГц
Частота кадров : 31,250 кадров/сек (1536 SPF)
Метод сжатия : С потерями
Размер потока : 288 Мбайт (8%)
Заголовок : Eng
Язык : English
Service kind : Complete Main
Default : Нет
Forced : Нет
Complexity index : 16
Number of dynamic objects : 15
Bed channel count : 1 канал
Bed channel configuration : LFE

Текст #1
Идентификатор : 7
Формат : UTF-8
Идентификатор кодека : S_TEXT/UTF8
Идентификатор кодека/Информация : UTF-8 Plain Text
Продолжительность : 48 м. 46 с.
Битрейт : 2 бит/сек
Count of elements : 23
Размер потока : 1,00 Кбайт (0%)
Заголовок : Forc
Язык : Russian
Default : Да
Forced : Нет

Текст #2
Идентификатор : 8
Формат : UTF-8
Идентификатор кодека : S_TEXT/UTF8
Идентификатор кодека/Информация : UTF-8 Plain Text
Продолжительность : 48 м. 47 с.
Битрейт : 62 бит/сек
Count of elements : 501
Размер потока : 22,4 Кбайт (0%)
Заголовок : Rus
Язык : Russian
Default : Нет
Forced : Нет

Текст #3
Идентификатор : 9
Формат : UTF-8
Идентификатор кодека : S_TEXT/UTF8
Идентификатор кодека/Информация : UTF-8 Plain Text
Продолжительность : 47 м. 44 с.
Битрейт : 36 бит/сек
Count of elements : 476
Размер потока : 12,7 Кбайт (0%)
Заголовок : Eng
Язык : English
Default : Нет
Forced : Нет

Текст #4
Идентификатор : 10
Формат : UTF-8
Идентификатор кодека : S_TEXT/UTF8
Идентификатор кодека/Информация : UTF-8 Plain Text
Продолжительность : 48 м. 23 с.
Битрейт : 45 бит/сек
Count of elements : 619
Размер потока : 16,1 Кбайт (0%)
Заголовок : SDH
Язык : English
Default : Нет
Forced : Нет

Меню
00:00:04.292 : en:Recap
00:04:06.417 : en:End of Recap
00:52:30.167 : en:Credits

Когда раздача ведётся путём добавления новых серий, при каждом добавлении создётся новый торрент. Чтобы начать докачку новой серии, пользователям необходимо сделать следующее:
(1) остановить скачивание,
(2) удалить старый торрент у себя из клиента (старые серии удалять не надо),
(3) скачать новый торрент и запустить его у себя в клиенте вместо старого, при этом указать клиенту путь в старую папку, куда и должно происходить скачивание новых серий.
Ваш клиент при этом должен произвести хеширование (проверку) старой папки (если не производит сам - помогите ему сделать это), и будет докачивать только те серии, которых у вас ещё нет. Старые серии при этом не удаляются, а продолжают раздаваться!
Eсли вы уже удалили старые серии, то предотвратить повторную закачку старых серий можно, отжав галочку в соответсвующих местах при запуске нового торрента. По возможности, желательно не удалять старые серии как можно дольше, чтобы релизёр не столько продолжал раздавать старые серии, а смог сконцентрироваться на новых.

pb.wtf



Скачать Оби-Ван Кеноби через торрент https://i6.imageban.ru/out/2022/05/28/6b3fd37805fcb002ad1043105d4c7b04.png Скачать, смотреть онлайн Оби-Ван Кеноби бесплантно в хорошем качестве Описание: Десять лет прошло с тех пор, как Владыка Ситх захватил Влacть в Империи, орден рыцарей-джедаев был практически полностью ... 10 10 10
Торрент: Зарегистрирован [2022-06-27 16:09] · скачан: 81 раз
Статус: √ проверено
Размер: 16.26 GB
Как cкачать? Как скачать Оби-Ван Кеноби через торрент | UTorrent

% Раздел Тема Автор DL S | L
Зарубежные сериалы [ 13.73 GB ] Оби-Ван Кеноби / Obi-Wan Kenobi / Сезон: 1 / Серии: 1-6 из 6 [2022 WEB-DL 1080p] MVO [HDRezka Studio] bober100 Скачать
5 | 3
Зарубежные сериалы [ 3.51 GB ] Оби-Ван Кеноби / Obi-Wan Kenobi / Сезон: 1 / Серии: 1-6 из 6 [2022 WEB-DLRip] MVO [HDRezka Studio] bober100 Скачать
3 | 0
Зарубежные сериалы [ 12.03 GB ] Оби-Ван Кеноби / Obi-Wan Kenobi / Сезон: 1 / Серии: 1-6 из 6 [2022 WEB-DL 1080p] DUB [Red Head Sound] bober100 Скачать
1 | 1
Зарубежные сериалы [ 14.08 GB ] Оби-Ван Кеноби / Obi-Wan Kenobi / Сезон: 1 / Серии: 1-6 из 6 [2022 WEB-DL 1080p] MVO [LostFilm] bober100 Скачать
11 | 0
Зарубежные сериалы [ 3.73 GB ] Оби-Ван Кеноби / Obi-Wan Kenobi / Сезон: 1 / Серии: 1-6 из 6 [2022 WEB-DLRip-AVC] MVO [HDRezka Studio] bober100 Скачать
4 | 2
Зарубежные сериалы [ 14.78 GB ] Оби-Ван Кеноби / Obi-Wan Kenobi / Сезон: 1 / Серии: 1-6 из 6 [2022 WEB-DL 1080p] MVO [AlexFilm] bober100 Скачать
4 | 0
Зарубежные сериалы [ 9.54 GB ] Оби-Ван Кеноби / Obi-Wan Kenobi / Сезон: 1 / Серии: 1-6 из 6 [2022 WEB-DL 720p] [MVO] + [AVO] + [Ukr MVO] killermax2013 Скачать
6 | 0

28-11-2019 20:33  

Отключить вcю реклaмy на сайте

    Дорогой пользователь! Огромная просьба, поблагодарите релизера, оцените раздачу и оставьте свои комментарий, если Вы скачали Оби-Ван Кеноби через торрент бесплатно!
    Комментировать посты могут только пользователи прошедшие не сложную регистрацию
    Показать сообщения:    

    Оби-Ван Кеноби через торрент
    Скачать бесплатно Оби-Ван Кеноби
    Оби-Ван Кеноби скачать торрент
    Оби-Ван Кеноби смотреть онлайн
    Cкачать фильм Оби-Ван Кеноби бесплатно
    Оби-Ван Кеноби скачать торрент в хорошем качестве
    Оби-Ван Кеноби смотреть онлайн бесплатно в хорошем качестве


    Вы не можете начинать темы
    Вы не можете отвечать на сообщения
    Вы не можете редактировать свои сообщения
    Вы не можете удалять свои сообщения
    Вы не можете голосовать в опросах
    Вы не можете прикреплять файлы к сообщениям
    Вы можете скачивать файлы