Всегда рабочее зеркало без VPN и Proxy просто перед .vidak.icu напиши любое слово или цифру, Пример http://n3ew.vidak.icu

MVO

MVO

1 сезон

1

1 сезон

iTunes

1 сезон

13

1 сезон

Deluxe

pack

Рекомендуем

Repack

30

ВАЖНО

RePack

MK11

RePack

jed

RePack

fifa19

RePack

RDR2

RePack

NEED FOR SPEED™ PAYBACK

Кинопоиск HD

6 сезон

 Острые козырьки 6 сезон

Все сериалы

все сериалы на PB.wtf

RePack

FAR CRY 5
  
Magnet ссылка

Затерянный город / The Lost City (Аарон Ни, Адам Ни) [2022, Комедия, приключения, мелодрама, боевик, UHD WEB-DL-HEVC 2160p] DUB [SDI Media / IYUNO SDI Group | Лицензия] +2xMVO (rus, ukr) [Jaskier, TVShows] pb.wtf

Затерянный город через торрент pb.wtf

Раздают: 7 [ 0 KB/s ]
Размер: 12.47 GB | Добавлен: 2 мес. 8 д. назад | Торрент скачан:263 раза
Смотреть онлайн Затерянный город | Скачать    Ребята, помогите собрать деньги на оплату серверов!!!

30-05-2022 16:20 Затерянный город Скачать торрент  

Затерянный город
The Lost City

Год выпуска: 2022
Страна: США
Студия: 3dot productions, Exhibit A, Fortis Films, Paramount Pictures
Жанр: Комедия, приключения, мелодрама, боевик
Продолжительность: 01:51:45
Перевод:
#1: Дублированный | SDI Media / IYUNO SDI Group | Лицензия
#2: Профессиональный многоголосый | Jaskier
#3: Профессиональный многоголосый | TVShows
Субтитры: Русские (Forced, Full), украинские (Forced, Full), английские

Режиссер: Аарон Ни, Адам Ни

rating

В ролях: Сандра Буллок, Ченнинг Татум, Дэниэл Рэдклифф, Да’Вин Джой Рэндольф, Оскар Нуньес, Патти Харрисон, Брэд Питт, Боуэн Янг, Стивен Лэнг, Джоан Прингл

Описание: После смерти мужа-археолога Лоретта Сейдж спряталась от общества и стала писать довольно популярные любовно-приключенческие романы. События в них разворачиваются в экзотических местах, а спутником главной героини неизменно выступает красавец Дэш, которого на обложках книг воплощает модель Алан — мечта всего фандома. После презентации очередного бестселлера Лоретту внезапно похищает эксцентричный миллиардер, уверенный, что она сможет расшифровать древние надписи и привести его к сокровищам затерянного города из её последней книги. Алан случайно становится свидетелем похищения и, решив доказать, что может быть героем и в реальной жизни, вместе с ассистентками писательницы разрабатывает спасательную операцию и сам отправляется Лоретте на выручку.

Качество: UHD WEB-DL-HEVC 2160p
Формат: MKV

Видео: 3840x2160 at 23.976 fps, MPEG-H HEVC DDR, ~ 13800 kbps avg
Аудио #01: 48 kHz, AC3, 5.1, 384 Kbps | Дублированный | Лицензия | RUS |
Аудио #02: 48 kHz, AC3, 5.1, 448 Kbps | Профессиональный многоголосый | Jaskier | RUS |
Аудио #03: 48 kHz, AC3, 2.0, 192 Kbps | Профессиональный многоголосый | TVShows | RUS |
Аудио #04: 48 kHz, AC3, 5.1, 384 Kbps | Профессиональный многоголосый | HDRezka Studio | UKR |
Аудио #05: 48 kHz, E-AC3+Atmos, 5.1, 768 Kbps | Оригинал | ENG |
скриншот  скриншот  скриншот  скриншот  скриншот  

General
Unique ID : 141337448869551191856261342421133366059 (0x6A549A3DB5B59571A92A3903FF25132B)
Complete name : E:\Video1\2\The.Lost.City.2022.WEB-DL.2160p.HDR.seleZen.mkv
Format : Matroska
Format version : Version 4
File size : 12.5 GiB
Duration : 1 h 51 min
Overall bit rate : 16.0 Mb/s
Movie name : The Lost City 2022 from seleZen
Encoded date : UTC 2022-05-30 15:45:41
Writing application : mkvmerge v59.0.0 ('Shining Star') 64-bit
Writing library : libebml v1.4.2 + libmatroska v1.6.4

Video
ID : 1
Format : HEVC
Format/Info : High Efficiency Video Coding
Format profile : Main [email protected]@Main
HDR format : SMPTE ST 2094 App 4, Version 1, HDR10+ Profile B compatible
Codec ID : V_MPEGH/ISO/HEVC
Duration : 1 h 51 min
Bit rate : 13.8 Mb/s
Width : 3 840 pixels
Height : 2 160 pixels
Display aspect ratio : 16:9
Frame rate mode : Constant
Frame rate : 23.976 (24000/1001) FPS
Color space : YUV
Chroma subsampling : 4:2:0 (Type 2)
Bit depth : 10 bits
Bits/(Pixel*Frame) : 0.069
Stream size : 10.8 GiB (86%)
Language : English
Default : Yes
Forced : No
Color range : Limited
Color primaries : BT.2020
Transfer characteristics : PQ
Matrix coefficients : BT.2020 non-constant
Mastering display color pri : Display P3
Mastering display luminance : min: 0.0001 cd/m2, max: 1000 cd/m2

Audio #1
ID : 2
Format : AC-3
Format/Info : Audio Coding 3
Commercial name : Dolby Digital
Codec ID : A_AC3
Duration : 1 h 51 min
Bit rate mode : Constant
Bit rate : 384 kb/s
Channel(s) : 6 channels
Channel layout : L R C LFE Ls Rs
Sampling rate : 48.0 kHz
Frame rate : 31.250 FPS (1536 SPF)
Compression mode : Lossy
Stream size : 307 MiB (2%)
Title : Dub
Language : Russian
Service kind : Complete Main
Default : Yes
Forced : Yes

Audio #2
ID : 3
Format : AC-3
Format/Info : Audio Coding 3
Commercial name : Dolby Digital
Codec ID : A_AC3
Duration : 1 h 51 min
Bit rate mode : Constant
Bit rate : 448 kb/s
Channel(s) : 6 channels
Channel layout : L R C LFE Ls Rs
Sampling rate : 48.0 kHz
Frame rate : 31.250 FPS (1536 SPF)
Compression mode : Lossy
Stream size : 358 MiB (3%)
Title : MVO [Jakier]
Language : Russian
Service kind : Complete Main
Default : No
Forced : No

Audio #3
ID : 4
Format : AC-3
Format/Info : Audio Coding 3
Commercial name : Dolby Digital
Codec ID : A_AC3
Duration : 1 h 51 min
Bit rate mode : Constant
Bit rate : 192 kb/s
Channel(s) : 2 channels
Channel layout : L R
Sampling rate : 48.0 kHz
Frame rate : 31.250 FPS (1536 SPF)
Compression mode : Lossy
Stream size : 153 MiB (1%)
Title : MVO [TVShows]
Language : Russian
Service kind : Complete Main
Default : No
Forced : No

Audio #4
ID : 5
Format : AC-3
Format/Info : Audio Coding 3
Commercial name : Dolby Digital
Codec ID : A_AC3
Duration : 1 h 51 min
Bit rate mode : Constant
Bit rate : 384 kb/s
Channel(s) : 6 channels
Channel layout : L R C LFE Ls Rs
Sampling rate : 48.0 kHz
Frame rate : 31.250 FPS (1536 SPF)
Compression mode : Lossy
Stream size : 307 MiB (2%)
Title : MVO [HDRezka Studio]
Language : Ukrainian
Service kind : Complete Main
Default : No
Forced : No

Audio #5
ID : 6
Format : E-AC-3 JOC
Format/Info : Enhanced AC-3 with Joint Object Coding
Commercial name : Dolby Digital Plus with Dolby Atmos
Codec ID : A_EAC3
Duration : 1 h 51 min
Bit rate mode : Constant
Bit rate : 768 kb/s
Channel(s) : 6 channels
Channel layout : L R C LFE Ls Rs
Sampling rate : 48.0 kHz
Frame rate : 31.250 FPS (1536 SPF)
Compression mode : Lossy
Stream size : 614 MiB (5%)
Title : Original
Language : English
Service kind : Complete Main
Default : No
Forced : No
Complexity index : 16
Number of dynamic objects : 15
Bed channel count : 1 channel
Bed channel configuration : LFE

Text #1
ID : 7
Format : UTF-8
Codec ID : S_TEXT/UTF8
Codec ID/Info : UTF-8 Plain Text
Duration : 1 h 40 min
Bit rate : 0 b/s
Count of elements : 4
Stream size : 137 Bytes (0%)
Title : Forced
Language : Russian
Default : Yes
Forced : Yes

Text #2
ID : 8
Format : UTF-8
Codec ID : S_TEXT/UTF8
Codec ID/Info : UTF-8 Plain Text
Duration : 1 h 51 min
Bit rate : 101 b/s
Count of elements : 1623
Stream size : 82.3 KiB (0%)
Title : Full
Language : Russian
Default : No
Forced : No

Text #3
ID : 9
Format : UTF-8
Codec ID : S_TEXT/UTF8
Codec ID/Info : UTF-8 Plain Text
Duration : 1 h 38 min
Bit rate : 0 b/s
Count of elements : 8
Stream size : 376 Bytes (0%)
Title : Forced
Language : Ukrainian
Default : No
Forced : No

Text #4
ID : 10
Format : UTF-8
Codec ID : S_TEXT/UTF8
Codec ID/Info : UTF-8 Plain Text
Duration : 1 h 51 min
Bit rate : 101 b/s
Count of elements : 1660
Stream size : 82.3 KiB (0%)
Title : Full
Language : Ukrainian
Default : No
Forced : No

Text #5
ID : 11
Format : UTF-8
Codec ID : S_TEXT/UTF8
Codec ID/Info : UTF-8 Plain Text
Duration : 1 h 45 min
Bit rate : 78 b/s
Count of elements : 1720
Stream size : 60.2 KiB (0%)
Title : Full
Language : English
Default : No
Forced : No

Text #6
ID : 12
Format : UTF-8
Codec ID : S_TEXT/UTF8
Codec ID/Info : UTF-8 Plain Text
Duration : 1 h 45 min
Bit rate : 87 b/s
Count of elements : 1908
Stream size : 67.7 KiB (0%)
Title : SDH
Language : English
Default : No
Forced : No

Menu
00:00:00.000 : Chapter 1
00:11:26.000 : Chapter 2
00:19:31.000 : Chapter 3
00:26:55.000 : Chapter 4
00:33:43.000 : Chapter 5
00:41:29.000 : Chapter 6
00:50:29.000 : Chapter 7
01:02:19.000 : Chapter 8
01:13:31.000 : Chapter 9
01:23:19.000 : Chapter 10
01:34:35.000 : Chapter 11
01:44:52.000 : Chapter 12

pb.wtf



Скачать Затерянный город через торрент https://i120.fastpic.org/big/2022/0529/53/76afaf8154fd982849e8e0efcaff5753.jpg Скачать, смотреть онлайн Затерянный город бесплантно в хорошем качестве Описание: После смерти мужа-археолога Лоретта Сейдж спряталась от общества и стала писать довольно популярные любовно-приключенческие ... 9.7 10 7
Info! Золотая раздача, скачанное не засчитывается.
Торрент: Зарегистрирован [2022-05-31 02:41] · скачан: 263 раз
Статус: √ проверено
Размер: 12.47 GB
Как cкачать? Как скачать Затерянный город через торрент | UTorrent

% Раздел Тема Автор DL S | L
Фильмы 2022 [DVDrip, WEB-DLRip, HDrip] (DUB, MVO) [ 1.46 GB ] Затерянный город / The Lost City [2022 HDRip] DUB [] bober100 Скачать
2 | 0
Фильмы (Blu-ray, BD-Remux, HDDVD) [ 27.43 GB ] Затерянный город / The Lost City [2022 BD Remux 1080p] DUB [] +2xMVO [Jaskier TVShows] bober100 Скачать
2 | 0
Фильмы 2022 [DVDrip, WEB-DLRip, HDrip] (DUB, MVO) [ 3.34 GB ] Затерянный город / The Lost City [2022 BDRip-AVC] DUB MVO [ Jaskier TVShows] Lithuania Скачать
3 | 0
Фильмы 2022 [DVDrip, WEB-DLRip, HDrip] (DUB, MVO) [ 1.68 GB ] Затерянный город / The Lost City [2022 WEB-DLRip-AVC] DUB [SDI Media / IYUNO SDI Group | ] bober100 Скачать
2 | 0
Фильмы [HD 720p, 1080p] (Хороший звук DUB, MVO) [ 8.23 GB ] Затерянный город / The Lost City [2022 BDRip 1080p] DUB [] +2xMVO [Jaskier TVShows] bober100 Скачать
7 | 0
T Фильмы (HD 720p, 1080p) (48-60 fps) [ 3.6 GB ] Затерянный город / The Lost City [2022 WEB-DLRip 720p / 60 FPS Любительский ] от R.G. HD-Films slaventi-69 Скачать
3 | 0
Фильмы [HD 720p, 1080p] (Хороший звук DUB, MVO) [ 4.2 GB ] Затерянный город / The Lost City [2022 BDRip 720p] DUB [] +2xMVO [Jaskier TVShows] bober100 Скачать
1 | 0

28-11-2019 20:33  

Отключить вcю реклaмy на сайте

    Дорогой пользователь! Огромная просьба, поблагодарите релизера, оцените раздачу и оставьте свои комментарий, если Вы скачали Затерянный город через торрент бесплатно!
    Комментировать посты могут только пользователи прошедшие не сложную регистрацию
    Показать сообщения:    

    Затерянный город через торрент
    Скачать бесплатно Затерянный город
    Затерянный город скачать торрент
    Затерянный город смотреть онлайн
    Cкачать фильм Затерянный город бесплатно
    Затерянный город скачать торрент в хорошем качестве
    Затерянный город смотреть онлайн бесплатно в хорошем качестве


    Вы не можете начинать темы
    Вы не можете отвечать на сообщения
    Вы не можете редактировать свои сообщения
    Вы не можете удалять свои сообщения
    Вы не можете голосовать в опросах
    Вы не можете прикреплять файлы к сообщениям
    Вы можете скачивать файлы