Всегда рабочее зеркало без VPN и Proxy просто перед .vidak.icu напиши любое слово или цифру, Пример http://vban.vidak.icu

MVO

MVO

1 сезон

1

1 сезон

iTunes

1 сезон

13

1 сезон

Deluxe

pack

Рекомендуем

Repack

30

ВАЖНО

RePack

MK11

RePack

jed

RePack

fifa19

RePack

RDR2

RePack

NEED FOR SPEED™ PAYBACK

Кинопоиск HD

6 сезон

 Острые козырьки 6 сезон

Все сериалы

все сериалы на PB.wtf

RePack

FAR CRY 5
  
Magnet ссылка

Босх: Наследие / Bosch: Legacy / Сезон: 1 / Серии: 1-10 из 10 (Патрик Кейди, Алекс Закржевский, Хагар Бен-Ашер) [2022, Детектив, триллер, криминал, боевик, WEB-DL 720p] MVO [Jaskier] pb.wtf

Босх: Наследие через торрент pb.wtf

Раздают: 2 [ 1 MB/s ]
Размер: 12.43 GB | Добавлен: 2 мес. 8 д. назад | Торрент скачан:32 раза
Смотреть онлайн Босх: Наследие | Скачать    Ребята, помогите собрать деньги на оплату серверов!!!

01-06-2022 17:34 Босх: Наследие Скачать торрент  

Босх: Наследие | Bosch: Legacy
«***»
Год выпуска: 2022
Страна: США
Выпущено: Amazon Studios, Fabel Entertainment
Жанр: Детектив, триллер, криминал, боевик
Продолжительность: ~ 00:45:00 серия
Перевод: Профессиональный (многоголосый) | Jaskier
Субтитры: Русские (Forced|), английские

Режиссер: Патрик Кейди, Алекс Закржевский, Хагар Бен-Ашер

rating

В ролях: Титус Уэлливер (Titus Welliver), Мэдисон Линтц (Madison Lintz), Мими Роджерс (Mimi Rogers), Стивен А. Чанг (Stephen A. Chang), Денис Дж. Санчес (Denise G. Sanchez), Дэвид Моусес (David Moses), Фил Моррис (Phil Morris), Стивен Флинн (Steven Flynn), Алекс Лойназ (Alex Loynaz), Майкл Эдвард Роуз (Michael Edward Rose), Эндрю Борба (Andrew Borba), Кейт Бёртон (Kate Burton)

Описание: И вновь Титус Уэлливер в роли Гарри Босха, детектива по расследованию убийств на пенсии, ставшего теперь частным детективом и открывающего следующую главу своей карьеры. Адвокат Хани изо всех сил пытается сохранить свою веру в систему правосудия после покушения на убийство, а Мэдди Босх открывает для себя возможности и трудности работы патрульным на улицах Лос-Анджелеса. Гарри Босх, который может и сдал свой значок, но не потерял веры в справедливость. Босх теперь частный сыщик, несколько неохотно объединяющий усилия с влиятельным адвокатом и бывшим заклятым врагом Хани Чендлер, чтобы поймать преступника, который безуспешно замышлял убить Хани и дочь Босха, Мэдди. Одним словом, Гарри вместе с адвокатом Хани и дочерью, вступившей в ряды полиции, вновь расследует запутанные преступления...

Качество: WEB-DL 720p
Формат: MKV

Видео: MPEG-4 AVC, 1280x720 (16:9), 23.976 fps, ~ 2 800 kbps
Аудио Rus: AC-3, 48 kHz, 6 ch, 384 kbps |Jaskier|
Аудио Eng: AC-3, 48 kHz, 6 ch, 384 kbps |Original|
скриншот  скриншот  скриншот  скриншот  скриншот  скриншот  

Общее
Уникальный идентификатор : 176846950160316561224402619157242228312 (0x850B7BD3065168AC87A444861750AE58)
Полное имя : D:Bosch.Legacy.S01.WEB-DL.720p.Jaskier\Bosch.Legacy.S01E01.720p.Jaskier.mkv
Формат : Matroska
Версия формата : Version 4
Размер файла : 1,39 Гбайт
Продолжительность : 54 м. 49 с.
Общий поток : 3 624 Кбит/сек
Название фильма : Bosch_Legacy.S01E01.WEB-DL(720p).[MVO](HDRezka Studio).xz
Дата кодирования : UTC 2022-06-01 01:04:37
Программа кодирования : mkvmerge v9.1.0 ('Little Earthquakes') 32bit
Библиотека кодирования : libebml v1.3.3 + libmatroska v1.4.4

Видео
Идентификатор : 6
Формат : AVC
Формат/Информация : Advanced Video Codec
Профиль формата : [email protected]
Настройки формата : CABAC / 4 Ref Frames
Параметр CABAC формата : Да
Параметр RefFrames формата : 4 кадра
Идентификатор кодека : V_MPEG4/ISO/AVC
Продолжительность : 54 м. 49 с.
Вид битрейта : Постоянный
Битрейт : 2 853 Кбит/сек
Номинальный битрейт : 4 000 Кбит/сек
Ширина : 1 280 пикселей
Высота : 720 пикселей
Соотношение сторон : 16:9
Режим частоты кадров : Постоянный
Частота кадров : 23,976 (24000/1001) кадра/сек
Цветовое пространство : YUV
Субдискретизация насыщенности : 4:2:0
Битовая глубина : 8 бит
Тип развёртки : Прогрессивная
Бит/(Пиксели*Кадры) : 0.129
Размер потока : 1,09 Гбайт (79%)
Заголовок : Bosch_Legacy.S01E01.WEB-DL(720p).[MVO](HDRezka Studio).xz
Default : Да
Forced : Нет
Цветовой диапазон : Limited
Основные цвета : BT.709
Характеристики трансфера : BT.709
Коэффициенты матрицы : BT.709

Аудио #1
Идентификатор : 1
Формат : AC-3
Формат/Информация : Audio Coding 3
Коммерческое название : Dolby Digital
Идентификатор кодека : A_AC3
Продолжительность : 54 м. 49 с.
Вид битрейта : Постоянный
Битрейт : 384 Кбит/сек
Каналы : 6 каналов
Channel layout : L R C LFE Ls Rs
Частота : 48,0 КГц
Частота кадров : 31,250 кадров/сек (1536 SPF)
Метод сжатия : С потерями
Размер потока : 151 Мбайт (11%)
Заголовок : Jaskier
Язык : Russian
Service kind : Complete Main
Default : Да
Forced : Нет

Аудио #2
Идентификатор : 2
Формат : AC-3
Формат/Информация : Audio Coding 3
Коммерческое название : Dolby Digital
Идентификатор кодека : A_AC3
Продолжительность : 54 м. 49 с.
Вид битрейта : Постоянный
Битрейт : 384 Кбит/сек
Каналы : 6 каналов
Channel layout : L R C LFE Ls Rs
Частота : 48,0 КГц
Частота кадров : 31,250 кадров/сек (1536 SPF)
Метод сжатия : С потерями
Размер потока : 151 Мбайт (11%)
Язык : English
Service kind : Complete Main
Default : Нет
Forced : Нет

Текст #1
Идентификатор : 3
Формат : UTF-8
Идентификатор кодека : S_TEXT/UTF8
Идентификатор кодека/Информация : UTF-8 Plain Text
Продолжительность : 14 м. 28 с.
Битрейт : 1 бит/сек
Count of elements : 3
Размер потока : 173 байт (0%)
Заголовок : Forced
Язык : Russian
Default : Да
Forced : Нет

Текст #2
Идентификатор : 4
Формат : UTF-8
Идентификатор кодека : S_TEXT/UTF8
Идентификатор кодека/Информация : UTF-8 Plain Text
Продолжительность : 52 м. 22 с.
Битрейт : 73 бит/сек
Count of elements : 852
Размер потока : 28,1 Кбайт (0%)
Заголовок : Full
Язык : English
Default : Нет
Forced : Нет

Текст #3
Идентификатор : 5
Формат : UTF-8
Идентификатор кодека : S_TEXT/UTF8
Идентификатор кодека/Информация : UTF-8 Plain Text
Продолжительность : 52 м. 31 с.
Битрейт : 79 бит/сек
Count of elements : 946
Размер потока : 30,5 Кбайт (0%)
Заголовок : SDH
Язык : English
Default : Нет
Forced : Нет

Внимание! Раздача ведётся путём добавления новых серий; при каждом добавлении создаётся новый торрент.
Чтобы начать докачку новой серии, пользователям необходимо сделать следующее:
1. Остановить скачивание;
2. Удалить старый торрент у себя из клиента (старые серии удалять не надо);
3. Скачать новый торрент и запустить его у себя в клиенте вместо старого, при этом указать клиенту путь в старую папку куда и должно происходить скачивание новых серий. Ваш клиент при этом должен произвести хеширование (проверку) старой папки и будет докачивать только те серии, которых у вас ещё нет. Старые серии при этом не удаляются, а продолжают раздаваться! Eсли вы уже удалили старые серии, то предотвратить повторную закачку старых серий можно, отжав галочку в соответствующих местах при запуске нового торрента.

pb.wtf



Скачать Босх: Наследие через торрент https://i7.imageban.ru/out/2022/05/09/1e7e7d9b11d1dcfdda2b5c6fe106b91f.png Скачать, смотреть онлайн Босх: Наследие бесплантно в хорошем качестве Описание: И вновь Титус Уэлливер в роли Гарри Босха, детектива по расследованию убийств на пенсии, ставшего теперь частным детективом и ... 10 10 2
Торрент: Зарегистрирован [2022-06-01 17:34] · скачан: 32 раз
Статус: √ проверено
Размер: 12.43 GB
Как cкачать? Как скачать Босх: Наследие через торрент | UTorrent

% Раздел Тема Автор DL S | L
Зарубежные сериалы [ 29.02 GB ] Босх: Наследие / Bosch: Legacy / Сезон: 1 / Серии: 1-10 из 10 [2022 WEB-DL 1080p] MVO [HDrezka Studio] bober100 Скачать
3 | 0
Зарубежные сериалы [ 13.48 GB ] Босх: Наследие / Bosch: Legacy / Сезон: 1 / Серии: 1-10 из 10 [2022 WEB-DL 720p] [MVO] killermax2013 Скачать
1 | 1

28-11-2019 20:33  

Отключить вcю реклaмy на сайте

    Дорогой пользователь! Огромная просьба, поблагодарите релизера, оцените раздачу и оставьте свои комментарий, если Вы скачали Босх: Наследие через торрент бесплатно!
    Комментировать посты могут только пользователи прошедшие не сложную регистрацию
    Показать сообщения:    

    Босх: Наследие через торрент
    Скачать бесплатно Босх: Наследие
    Босх: Наследие скачать торрент
    Босх: Наследие смотреть онлайн
    Cкачать фильм Босх: Наследие бесплатно
    Босх: Наследие скачать торрент в хорошем качестве
    Босх: Наследие смотреть онлайн бесплатно в хорошем качестве


    Вы не можете начинать темы
    Вы не можете отвечать на сообщения
    Вы не можете редактировать свои сообщения
    Вы не можете удалять свои сообщения
    Вы не можете голосовать в опросах
    Вы не можете прикреплять файлы к сообщениям
    Вы можете скачивать файлы