Всегда рабочее зеркало без VPN и Proxy просто перед .vidak.icu напиши любое слово или цифру, Пример http://nblz.vidak.icu

Лицензия

MVO

1 сезон

1

1 сезон

iTunes

1 сезон

13

1 сезон

Deluxe

pack

Рекомендуем

Repack

30

ВАЖНО

RePack

MK11

RePack

jed

RePack

fifa19

RePack

RDR2

RePack

NEED FOR SPEED™ PAYBACK

Кинопоиск HD

6 сезон

 Острые козырьки 6 сезон

Все сериалы

все сериалы на PB.wtf

RePack

FAR CRY 5
  
Magnet ссылка

1941. Крылья над Берлином (Константин Буслов) [2022, боевик, военный, исторический, WEB-DLRip-AVC] RUS [КиноПоиск HD] от ExKinoRay pb.wtf

1941. Крылья над Берлином через торрент pb.wtf

Раздают: 4 [ 0 KB/s ]
Размер: 1.63 GB | Добавлен: 2 мес. 14 д. назад | Торрент скачан:314 раз
Смотреть онлайн 1941. Крылья над Берлином | Скачать    Ребята, помогите собрать деньги на оплату серверов!!!

03-06-2022 10:41 1941. Крылья над Берлином Скачать торрент  


1941. Крылья над Берлином
Информация о фильме:
Название: 1941. Крылья над Берлином
Год выхода: 2022
Жанр: боевик, военный, исторический
Режиссер: Константин Буслов
В ролях: Сергей Пускепалис, Максим Битюков, Сергей Гилёв, Гела Месхи, Александр Метёлкин (II), Николай Козак, Егор Кирячок, Евгений Сафронов, Евгений Антропов, Владимир Тяптушкин, Степан Белозеров, Равиль Батыров (II), Алексей Овсянников, Леонела Мантурова, Наталья Николаева (V), Олег Савостюк (II), Всеволод Иванов (II), Арсений Тополага, Дмитрий Матвеев (II), Сергей Демидов, Георгий Иобадзе, Александр Кудин, Евгения Лях, Тимур Орагвелидзе, Кирилл Папин, Юрий Павлов, Иван Решетняк, Максим Солопов, Яков Шамшин, Андрей Харенко

Описание: История о подвиге лётчиков 1-го минно-торпедного авиационного полка ВВС Балтийского флота во главе с полковником Преображенским. У них была сложнейшая боевая задача — нанести первые бомбовые удары по Берлину, столице фашистской Германии.



Страна: Россия
Студия: RB Production
Продолжительность: 01:40:05
Перевод: Оригинал - КиноПоиск HD



Информация о файле:
Кодек: AVC
Формат: MKV
Качество: WEB-DLRip-AVC
Видео: MPEG-4 AVC, 1024x428, 24.000 fps, 1890 kb/s
Аудио RU: AC3, 6 ch, 48 kHz, 448 kbps



x264 info: frame I:1393 Avg QP:13.93 size: 66555
x264 info: frame P:37147 Avg QP:16.85 size: 19411
x264 info: frame B:105579 Avg QP:18.97 size: 5723
General
Unique ID : 33513776905079543692694067684746756275 (0x193684C62FFD357F9B65FA064E1880B3)
Complete name : D:uTorrentРипы wolf12451941.Kryilya.nad.Berlinom.2022.RUS.KHD.x264.WEB-DLRip-AVC.[wolf1245.ExKinoRay].mkv
Format : Matroska
Format version : Version 4
File size : 1.63 GiB
Duration : 1 h 40 min
Overall bit rate : 2 339 kb/s
Movie name : 1941.Kryilya.nad.Berlinom.2022.RUS.KHD.x264.WEB-DLRip-AVC.[wolf1245.ExKinoRay]
Encoded date : UTC 2022-06-03 10:24:58
Writing application : mkvmerge v68.0.0 ('The Curtain') 64-bit
Writing library : libebml v1.4.2 + libmatroska v1.6.4
Video
ID : 1
Format : AVC
Format/Info : Advanced Video Codec
Format profile : [email protected]
Format settings : CABAC / 10 Ref Frames
Format settings, CABAC : Yes
Format settings, Reference frames : 10 frames
Codec ID : V_MPEG4/ISO/AVC
Duration : 1 h 40 min
Bit rate : 1 890 kb/s
Width : 1 024 pixels
Height : 428 pixels
Display aspect ratio : 2.40:1
Frame rate mode : Constant
Frame rate : 24.000 FPS
Color space : YUV
Chroma subsampling : 4:2:0
Bit depth : 8 bits
Scan type : Progressive
Bits/(Pixel*Frame) : 0.180
Stream size : 1.32 GiB (81%)
Title : -=[wolf1245.ExKinoRay]=-
Writing library : x264 core 163 r3060 5db6aa6
Encoding settings : cabac=1 / ref=10 / deblock=1:-3:-2 / analyse=0x3:0x133 / me=umh / subme=11 / psy=1 / psy_rd=1.00:0.15 / mixed_ref=1 / me_range=32 / chroma_me=1 / trellis=2 / 8x8dct=1 / cqm=0 / deadzone=22,11 / fast_pskip=1 / chroma_qp_offset=-3 / threads=10 / lookahead_threads=2 / sliced_threads=0 / nr=0 / decimate=0 / interlaced=0 / bluray_compat=0 / constrained_intra=0 / bframes=10 / b_pyramid=2 / b_adapt=2 / b_bias=0 / direct=3 / weightb=1 / open_gop=0 / weightp=2 / keyint=240 / keyint_min=24 / scenecut=40 / intra_refresh=0 / rc_lookahead=60 / rc=2pass / mbtree=0 / bitrate=1890 / ratetol=1.0 / qcomp=0.65 / qpmin=0 / qpmax=69 / qpstep=4 / cplxblur=20.0 / qblur=0.5 / vbv_maxrate=50000 / vbv_bufsize=62500 / nal_hrd=none / filler=0 / ip_ratio=1.40 / pb_ratio=1.30 / aq=2:1.00
Language : Russian
Default : Yes
Forced : No
Audio
ID : 2
Format : AC-3
Format/Info : Audio Coding 3
Commercial name : Dolby Digital
Codec ID : A_AC3
Duration : 1 h 40 min
Bit rate mode : Constant
Bit rate : 448 kb/s
Channel(s) : 6 channels
Channel layout : L R C LFE Ls Rs
Sampling rate : 48.0 kHz
Frame rate : 31.250 FPS (1536 SPF)
Compression mode : Lossy
Stream size : 321 MiB (19%)
Title : RUS | KHD | Original
Language : Russian
Service kind : Complete Main
Default : Yes
Forced : Yes
Релиз от:
Автор релиза:
pb.wtf



Скачать 1941. Крылья над Берлином через торрент http://i120.fastpic.org/big/2022/0603/23/0cf7322e1e43006962b4092055c80423.jpg Скачать, смотреть онлайн 1941. Крылья над Берлином бесплантно в хорошем качестве Описание: История о подвиге лётчиков 1-го минно-торпедного авиационного полка ВВС Балтийского флота во главе с полковником ... 8.9 10 14
Info! Золотая раздача, скачанное не засчитывается.
Торрент: Зарегистрирован [2022-06-03 10:41] · скачан: 314 раз
Статус: √ проверено
Размер: 1.63 GB
Как cкачать? Как скачать 1941. Крылья над Берлином через торрент | UTorrent

28-11-2019 20:33  

Отключить вcю реклaмy на сайте

03-06-2022 18:00 1941. Крылья над Берлином Скачать торрент  

Хороший фильм, без антисоветчины. С падучей для драматизму, конечно, перестарались, но в целом соответствует истории pb.wtf



03-06-2022 21:47 1941. Крылья над Берлином Скачать торрент  

Говно редкостноеpb.wtf



  У меня ест кнопка, мне её хватает. Это Жена твоя, на отлично угорает 👍, выдал sdolotov

06-07-2022 11:04 1941. Крылья над Берлином Скачать торрент  

не фильм, а мракобесие как и исторических моментов, так и приемов в кино. Кто то где то подумал что умеет снимать... Кнопки перемотка вперед и поиск смысла, а так же недоумение в складывании сюжетных поворотов и для чего все это?.. Кино про черных с черными, о почернении в америке - лучше!pb.wtf



    Дорогой пользователь! Огромная просьба, поблагодарите релизера, оцените раздачу и оставьте свои комментарий, если Вы скачали 1941. Крылья над Берлином через торрент бесплатно!
    Комментировать посты могут только пользователи прошедшие не сложную регистрацию
    Показать сообщения:    

    1941. Крылья над Берлином через торрент
    Скачать бесплатно 1941. Крылья над Берлином
    1941. Крылья над Берлином скачать торрент
    1941. Крылья над Берлином смотреть онлайн
    Cкачать фильм 1941. Крылья над Берлином бесплатно
    1941. Крылья над Берлином скачать торрент в хорошем качестве
    1941. Крылья над Берлином смотреть онлайн бесплатно в хорошем качестве


    Вы не можете начинать темы
    Вы не можете отвечать на сообщения
    Вы не можете редактировать свои сообщения
    Вы не можете удалять свои сообщения
    Вы не можете голосовать в опросах
    Вы не можете прикреплять файлы к сообщениям
    Вы можете скачивать файлы