Всегда рабочее зеркало без VPN и Proxy просто перед .vidak.icu напиши любое слово или цифру, Пример http://quh8.vidak.icu

Лицензия

MVO

1 сезон

1

1 сезон

iTunes

1 сезон

13

1 сезон

Deluxe

pack

Рекомендуем

Repack

30

ВАЖНО

RePack

MK11

RePack

jed

RePack

fifa19

RePack

RDR2

RePack

NEED FOR SPEED™ PAYBACK

Кинопоиск HD

6 сезон

 Острые козырьки 6 сезон

Все сериалы

все сериалы на PB.wtf

RePack

FAR CRY 5
  
Magnet ссылка

Пацаны / The Boys / Сезон 3 / Серии 1-8 из 8 (Филип Сгриккиа, Дэниэл Эттиэс, Дженнифер Фанг) [2022, фантастика, боевик, комедия, криминал, WEB-DL (HEVC)1080p] 3x [MVO] (HDRezka Studio, AlexFilm, Jaskier) + [Ukr MVO] (DniproFilm) pb.wtf

Пацаны через торрент pb.wtf

Раздают: 5 [ 582 KB/s ] Качают: 1 [ 0 KB/s ]
Размер: 22.85 GB | Добавлен: 1 мес. 3 д. назад | Торрент скачан:77 раз
Смотреть онлайн Пацаны | Скачать    Ребята, помогите собрать деньги на оплату серверов!!!

04-06-2022 05:58 Пацаны Скачать торрент  

Пацаны / The Boys ✦ Год выпуска: 2022
✦ Страна: США
✦ Жанр: фантастика, боевик, комедия, криминал
✦ Продолжительность: ~01:00:00
✦ Перевод #1: Профессиональный (многоголосный) - HDrezka Studio
✦ Перевод #2: Профессиональный (многоголосный) - AlexFilm
✦ Перевод #3: Профессиональный (многоголосный) - Jaskier
✦ Перевод #4: Профессиональный (многоголосый закадровый) - Украинский
✦ Субтитры: английские, русские, украинские (forced)

✦ Режиссеры: Филип Сгриккиа, Дэниэл Эттиэс, Дженнифер Фанг

✦ В ролях: Карл Урбан, Доминик МакЭллигот, Эрин Мориарти, Элизабет Шу, Энтони Старр, Дженнифер Эспозито, Саймон Пегг, Шантель Ван Сантен, Хэйли Джоэл Осмент, Чейс Кроуфорд, Нэйтан Митчелл, Джек Куэйд, Джесси Ашер, Билли Зейн, Джим Бивер, Лас Алонсо, жанкарло Эспозито, Джимми Фэллон, Тара Рид, Сет Роген и др.

✦ Описание: Действие сериала разворачивается в мире, где существуют супергерои. Именно они являются настоящими звездами. Их все знают и обожают. Но за идеальным фасадом скрывается гораздо более мрачный мир наркотиков и секса, а большинство героев — в жизни не самые приятные люди. Для контроля за супергероями ЦРУ создает специальный отряд, неофициально известный как «Пацаны», суровые члены которого всегда готовы поставить зазнавшегося героя на место самым жестоким способом.

rating

✦ Качество: WEB-DL (HEVC)1080p
✦ Формат: MKV
✦ Видео кодек: x.265
✦ Аудио кодек: AC3
✦ Видео: HEVC , 1920x1080, 4 061 Kbps, 23,976 fps
✦ Аудио #1 Rus: 48 kHz, AC3, 6 ch, 448 kbps | HDRezka Studio *18+ озвучка без цензуры !
✦ Аудио #2 Rus: 48 kHz, AC3, 6 ch, 384 kbps | AlexFilm *18+ озвучка без цензуры !
✦ Аудио #3 Rus: 48 kHz, AC3, 6 ch, 448 kbps | Jaskier
✦ Аудио #4 Ukr: 48 kHz, AC3, 6 ch, 384 kbps | DniproFilm *18+ озвучка без цензуры !
✦ Аудио #5 Eng: 48 kHz, AC3, 6 ch, 640 kbps|Original|
скриншот  скриншот  скриншот  скриншот  
General
Unique ID : 204833914196447175846340258199237652527 (0x9A1993AF914B7C87AAD1D32E2451702F)
Complete name : The Boys.S03.WEB-DL(HEVC)1080p.xz\The Boys.S03E01.WEB-DL (HEVC)1080p. 3x(HDRezka,AlexFilm,Jaskier), [Ukr] (DniproFilm).xz.mkv
Format : Matroska
Format version : Version 4
File size : 2.80 GiB
Duration : 1 h 1 min
Overall bit rate : 6 478 kb/s
Movie name : The Boys.S03E01.WEB-DL (HEVC)1080p. 3x(HDRezka,AlexFilm,Jaskier), [Ukr] (DniproFilm).xz
Encoded date : UTC 2022-06-06 18:34:04
Writing application : mkvmerge v6.1.0 ('Old Devil') built on Mar 2 2013 14:32:37
Writing library : libebml v1.3.0 + libmatroska v1.4.0

Video
ID : 1
Format : HEVC
Format/Info : High Efficiency Video Coding
Format profile : Main [email protected]@Main
Codec ID : V_MPEGH/ISO/HEVC
Duration : 1 h 1 min
Bit rate : 4 045 kb/s
Width : 1 920 pixels
Height : 1 080 pixels
Display aspect ratio : 16:9
Frame rate mode : Constant
Frame rate : 23.976 (24000/1001) FPS
Color space : YUV
Chroma subsampling : 4:2:0
Bit depth : 10 bits
Bits/(Pixel*Frame) : 0.081
Stream size : 1.75 GiB (62%)
Title : The Boys.S03E01.WEB-DL (HEVC)1080p. 3x(HDRezka,AlexFilm,Jaskier), [Ukr] (DniproFilm).xz
Writing library : x265 3.5+37+12-4e46995bc:[Windows][MSVC 1931][64 bit] 10bit
Encoding settings : cpuid=1111039 / frame-threads=5 / numa-pools=32 / wpp / pmode / no-pme / no-psnr / no-ssim / log-level=2 / input-csp=1 / input-res=1920x1080 / interlace=0 / total-frames=44580 / level-idc=0 / high-tier=1 / uhd-bd=0 / ref=4 / no-allow-non-conformance / no-repeat-headers / annexb / no-aud / no-eob / no-eos / no-hrd / info / hash=0 / no-temporal-layers / open-gop / min-keyint=23 / keyint=250 / gop-lookahead=0 / bframes=16 / b-adapt=2 / b-pyramid / bframe-bias=0 / rc-lookahead=90 / lookahead-slices=4 / scenecut=40 / no-hist-scenecut / radl=0 / no-splice / no-intra-refresh / ctu=64 / min-cu-size=8 / no-rect / no-amp / max-tu-size=32 / tu-inter-depth=4 / tu-intra-depth=4 / limit-tu=0 / rdoq-level=2 / dynamic-rd=0.00 / no-ssim-rd / signhide / no-tskip / nr-intra=0 / nr-inter=0 / no-constrained-intra / no-strong-intra-smoothing / max-merge=5 / limit-refs=0 / limit-modes / me=3 / subme=7 / merange=92 / temporal-mvp / no-frame-dup / no-hme / weightp / no-weightb / no-analyze-src-pics / deblock=0:0 / sao / no-sao-non-deblock / rd=4 / selective-sao=4 / no-early-skip / rskip / no-fast-intra / no-tskip-fast / no-cu-lossless / no-b-intra / no-splitrd-skip / rdpenalty=0 / psy-rd=1.30 / psy-rdoq=1.00 / no-rd-refine / no-lossless / cbqpoffs=0 / crqpoffs=0 / rc=crf / crf=17.3 / qcomp=0.60 / qpstep=4 / stats-write=0 / stats-read=0 / ipratio=1.40 / pbratio=1.30 / aq-mode=5 / aq-strength=1.00 / aq-bias-strength=1.00 / cutree / zone-count=0 / no-strict-cbr / qg-size=32 / no-rc-grain / qpmax=69 / qpmin=0 / no-const-vbv / sar=0 / overscan=0 / videoformat=5 / range=0 / colorprim=1 / transfer=1 / colormatrix=1 / chromaloc=0 / display-window=0 / cll=0,0 / min-luma=0 / max-luma=1023 / log2-max-poc-lsb=8 / vui-timing-info / vui-hrd-info / slices=1 / no-opt-qp-pps / no-opt-ref-list-length-pps / no-multi-pass-opt-rps / scenecut-bias=0.05 / hist-threshold=0.03 / no-opt-cu-delta-qp / no-aq-motion / no-hdr10 / no-hdr10-opt / no-dhdr10-opt / no-idr-recovery-sei / analysis-reuse-level=0 / analysis-save-reuse-level=0 / analysis-load-reuse-level=0 / scale-factor=0 / refine-intra=0 / refine-inter=0 / refine-mv=1 / refine-ctu-distortion=0 / no-limit-sao / ctu-info=0 / no-lowpass-dct / refine-analysis-type=0 / copy-pic=1 / max-ausize-factor=1.0 / no-dynamic-refine / no-single-sei / no-hevc-aq / no-svt / no-field / qp-adaptation-range=1.00 / scenecut-aware-qp=0conformance-window-offsets / right=0 / bottom=0 / decoder-max-rate=0 / no-vbv-live-multi-pass
Language : English
Default : Yes
Forced : No
Color range : Limited
Color primaries : BT.709
Transfer characteristics : BT.709
Matrix coefficients : BT.709
Duration_Source : General_Duration

Audio #1
ID : 2
Format : AC-3
Format/Info : Audio Coding 3
Commercial name : Dolby Digital
Codec ID : A_AC3
Duration : 1 h 1 min
Bit rate mode : Constant
Bit rate : 448 kb/s
Channel(s) : 6 channels
Channel layout : L R C LFE Ls Rs
Sampling rate : 48.0 kHz
Frame rate : 31.250 FPS (1536 SPF)
Compression mode : Lossy
Stream size : 199 MiB (7%)
Title : HDR
Language : Russian
Service kind : Complete Main
Default : No
Forced : No
Duration_Source : General_Duration

Audio #2
ID : 3
Format : AC-3
Format/Info : Audio Coding 3
Commercial name : Dolby Digital
Codec ID : A_AC3
Duration : 1 h 1 min
Bit rate mode : Constant
Bit rate : 384 kb/s
Channel(s) : 6 channels
Channel layout : L R C LFE Ls Rs
Sampling rate : 48.0 kHz
Frame rate : 31.250 FPS (1536 SPF)
Compression mode : Lossy
Stream size : 170 MiB (6%)
Title : AF
Language : Russian
Service kind : Complete Main
Default : No
Forced : No
Duration_Source : General_Duration

Audio #3
ID : 4
Format : AC-3
Format/Info : Audio Coding 3
Commercial name : Dolby Digital
Codec ID : A_AC3
Duration : 1 h 1 min
Bit rate mode : Constant
Bit rate : 448 kb/s
Channel(s) : 6 channels
Channel layout : L R C LFE Ls Rs
Sampling rate : 48.0 kHz
Frame rate : 31.250 FPS (1536 SPF)
Compression mode : Lossy
Stream size : 199 MiB (7%)
Title : Jaskier
Language : Russian
Service kind : Complete Main
Default : No
Forced : No
Duration_Source : General_Duration

Audio #4
ID : 5
Format : AC-3
Format/Info : Audio Coding 3
Commercial name : Dolby Digital
Codec ID : A_AC3
Duration : 1 h 1 min
Bit rate mode : Constant
Bit rate : 384 kb/s
Channel(s) : 6 channels
Channel layout : L R C LFE Ls Rs
Sampling rate : 48.0 kHz
Frame rate : 31.250 FPS (1536 SPF)
Compression mode : Lossy
Stream size : 170 MiB (6%)
Title : DniproFilm
Language : Ukrainian
Service kind : Complete Main
Default : No
Forced : No
Duration_Source : General_Duration

Audio #5
ID : 6
Format : E-AC-3
Format/Info : Enhanced AC-3
Commercial name : Dolby Digital Plus
Codec ID : A_EAC3
Duration : 1 h 1 min
Bit rate mode : Constant
Bit rate : 640 kb/s
Channel(s) : 6 channels
Channel layout : L R C LFE Ls Rs
Sampling rate : 48.0 kHz
Frame rate : 31.250 FPS (1536 SPF)
Compression mode : Lossy
Stream size : 284 MiB (10%)
Language : English
Service kind : Complete Main
Default : No
Forced : No
Statistics Tags Issue : mkvmerge v68.0.0 ('The Curtain') 64-bit 2022-06-03 15:40:18 / mkvmerge v6.1.0 ('Old Devil') built on Mar 2 2013 14:32:37 2022-06-06 18:34:04
FromStats_BitRate : 640000
FromStats_Duration : 01:01:58.752000000
FromStats_FrameCount : 116211
FromStats_StreamSize : 297500160
Duration_Source : General_Duration

Text #1
ID : 7
Format : UTF-8
Codec ID : S_TEXT/UTF8
Codec ID/Info : UTF-8 Plain Text
Title : English [SDH]
Language : English
Default : No
Forced : No
Statistics Tags Issue : mkvmerge v68.0.0 ('The Curtain') 64-bit 2022-06-03 15:40:18 / mkvmerge v6.1.0 ('Old Devil') built on Mar 2 2013 14:32:37 2022-06-06 18:34:04
FromStats_BitRate : 79
FromStats_Duration : 01:00:12.567000000
FromStats_FrameCount : 1221
FromStats_StreamSize : 35829

Text #2
ID : 8
Format : UTF-8
Codec ID : S_TEXT/UTF8
Codec ID/Info : UTF-8 Plain Text
Title : Russian
Language : Russian
Default : No
Forced : No
Statistics Tags Issue : mkvmerge v68.0.0 ('The Curtain') 64-bit 2022-06-03 15:40:18 / mkvmerge v6.1.0 ('Old Devil') built on Mar 2 2013 14:32:37 2022-06-06 18:34:04
FromStats_BitRate : 97
FromStats_Duration : 01:00:14.402000000
FromStats_FrameCount : 786
FromStats_StreamSize : 43939

Text #3
ID : 9
Format : UTF-8
Codec ID : S_TEXT/UTF8
Codec ID/Info : UTF-8 Plain Text
Title : forced
Language : Russian
Default : No
Forced : No

Text #4
ID : 10
Format : UTF-8
Codec ID : S_TEXT/UTF8
Codec ID/Info : UTF-8 Plain Text
Title : forced
Language : Ukrainian
Default : No
Forced : No
Когда раздача ведётся путём добавления новых серий, при каждом добавлении создётся новый торрент. Чтобы начать докачку новой серии, пользователям необходимо сделать следующее:

(1) остановить скачивание,

(2) удалить старый торрент у себя из клиента (старые серии удалять не надо),

(3) скачать новый торрент и запустить его у себя в клиенте вместо старого, при этом указать клиенту путь в старую папку, куда и должно происходить скачивание новых серий.

Ваш клиент при этом должен произвести хеширование (проверку) старой папки (если не производит сам - помогите ему сделать это), и будет докачивать только те серии, которых у вас ещё нет. Старые серии при этом не удаляются, а продолжают раздаваться!

Eсли вы уже удалили старые серии, то предотвратить повторную закачку старых серий можно, отжав галочку в соответствующих местах при запуске нового торрента. По возможности, желательно не удалять старые серии как можно дольше, чтобы релизер не столько продолжал раздавать старые серии, а смог сконцентрироваться на новых.
pb.wtf



Скачать Пацаны через торрент https://i120.fastpic.org/big/2022/0604/8e/f63a81c56801abc94b7dda9f49e28b8e.jpg Скачать, смотреть онлайн Пацаны бесплантно в хорошем качестве Описание: Действие сериала разворачивается в мире, где существуют супергерои. Именно они являются настоящими звездами. Их все знают и ... 8.5 10 18
Торрент: Зарегистрирован [2022-07-11 07:32] · скачан: 77 раз
Статус: √ проверено
Размер: 22.85 GB
Как cкачать? Как скачать Пацаны через торрент | UTorrent

% Раздел Тема Автор DL S | L
Зарубежные сериалы [ 5.77 GB ] Пацаны / The Boys / Сезон: 3 / Серии: 1-8 из 8 [2022 WEBRip] DUB [Red Head Sound] bober100 Скачать
6 | 0
Зарубежные сериалы [ 29.87 GB ] Пацаны / The Boys / Сезон: 3 / Серии: 1-8 из 8 [2022 WEB-DL 1080p] DUB [Red Head Sound] bober100 Скачать
3 | 0
Зарубежные сериалы [ 48.09 GB ] Пацаны / The Boys / Сезон: 3 / Серии: 1-8 из 8 [2022 WEBRip 1080p] 3xMVO bober100 Скачать
1 | 0
Зарубежные сериалы [ 40.34 GB ] Пацаны / The Boys / Сезон: 3 / Серии 1-8 из 8 [2022 WEB-DLRip 1080] 6 x MVO + DUB GEKADOL Скачать
6 | 1
Зарубежные сериалы [ 5.77 GB ] Пацаны / The Boys / Сезон: 3 / Серии: 1-8 из 8 [2022 WEBRip] MVO [HDRezka Studio] bober100 Скачать
6 | 3
Зарубежные сериалы [ 32.96 GB ] Пацаны / The Boys / Сезон: 3 / Серии 1-8 из 8 [2022 WEB-DL 1080p] MVO GEKADOL Скачать
3 | 0
Зарубежные сериалы [ 54.11 GB ] Пацаны / The Boys / Сезон: 3 / Серии: 1-8 из 8 [2022 WEBRip 1080p] MVO [AlexFilm] bober100 Скачать
1 | 0


Последний раз редактировалось: killermax2013 (2022-07-11 07:32), всего редактировалось 21 раз(а)

28-11-2019 20:33  

Отключить вcю реклaмy на сайте

04-06-2022 06:20 Пацаны Скачать торрент  

Cериал ТОП!pb.wtf



04-06-2022 11:37 Пацаны Скачать торрент  

Круть)pb.wtf



04-06-2022 11:54 Пацаны Скачать торрент  

Кто-нибудь в курсе когда с кубиками перевод появится?pb.wtf



04-06-2022 12:17 Пацаны Скачать торрент  

degtyarev1990 писал(а):

Кто-нибудь в курсе когда с кубиками перевод появится?

К огромному сожалению скорее всего не будет перевода...либо очень очень не скоро...
Они больше не пираты, а работают официально на кинопоиск.
Для перевода им нужны права от правообладателя, т.е у Amazon, а Amazon ушёл из России.
Даже сам теперь не знаю в каком переводе смотреть(((((pb.wtf



05-06-2022 18:08 Пацаны Скачать торрент  

AtomDMG писал(а):

degtyarev1990 писал(а):

Кто-нибудь в курсе когда с кубиками перевод появится?

К огромному сожалению скорее всего не будет перевода...либо очень очень не скоро...
Они больше не пираты, а работают официально на кинопоиск.
Для перевода им нужны права от правообладателя, т.е у Amazon, а Amazon ушёл из России.
Даже сам теперь не знаю в каком переводе смотреть(((((

От HDrezki шикарный перевод,не хуже чем от кубиков, с матерком:)pb.wtf



05-07-2022 06:32 Пацаны Скачать торрент  

АлексФильм зажрались нахой )) более похожий голос на кубиков и выпускают самые последние ! Лостфильм уже даже серию выпустил ...pb.wtf
Kkillermax2013 писал(а):

у AlexFilm был "форс мажор" . Но озвучка уже добавлена



    Дорогой пользователь! Огромная просьба, поблагодарите релизера, оцените раздачу и оставьте свои комментарий, если Вы скачали Пацаны через торрент бесплатно!
    Комментировать посты могут только пользователи прошедшие не сложную регистрацию
    Показать сообщения:    

    Пацаны через торрент
    Скачать бесплатно Пацаны
    Пацаны скачать торрент
    Пацаны смотреть онлайн
    Cкачать фильм Пацаны бесплатно
    Пацаны скачать торрент в хорошем качестве
    Пацаны смотреть онлайн бесплатно в хорошем качестве


    Вы не можете начинать темы
    Вы не можете отвечать на сообщения
    Вы не можете редактировать свои сообщения
    Вы не можете удалять свои сообщения
    Вы не можете голосовать в опросах
    Вы не можете прикреплять файлы к сообщениям
    Вы можете скачивать файлы