Всегда рабочее зеркало без VPN и Proxy просто перед .vidak.icu напиши любое слово или цифру, Пример http://bhu8.vidak.icu

MVO

MVO

1 сезон

1

1 сезон

iTunes

1 сезон

13

1 сезон

Deluxe

pack

Рекомендуем

Repack

30

ВАЖНО

RePack

MK11

RePack

jed

RePack

fifa19

RePack

RDR2

RePack

NEED FOR SPEED™ PAYBACK

Кинопоиск HD

6 сезон

 Острые козырьки 6 сезон

Все сериалы

все сериалы на PB.wtf

RePack

FAR CRY 5
  
Magnet ссылка

Пост Мортем / Post Mortem (Петер Бергенди) [2020, Ужасы, триллер, детектив, HDRip-AVC] DUB [KIPARIS] от ExKinoRay pb.wtf

Пост Мортем через торрент pb.wtf

Размер: 1.83 GB | Добавлен: 2 мес. 7 д. назад | Торрент скачан:53 раза
Смотреть онлайн Пост Мортем | Скачать    Ребята, помогите собрать деньги на оплату серверов!!!

04-06-2022 09:52 Пост Мортем Скачать торрент  


Пост Мортем / Post Mortem
Информация о фильме:
Название: Пост Мортем
Оригинальное название: Post Mortem
Год выхода: 2020
Жанр: Ужасы, триллер, детектив
Режиссер: Петер Бергенди
В ролях: Виктор Клем, Фрузина Хаис, Юдит Шелль, Андреа Ладани, Жолт Ангер, Габор Ревицки, Габриэлла Хамори, Андраш Балог, Диана Кишш, Мари Надь

Описание: В конце XIX - начале XX века широкое распространение получило понятие «пост мортем» - посмертные снимки в память об умерших близких. Фотографа Томаса приглашают в опустошенную эпидемией «испанки» деревню. Вскоре он узнает, что это место проклято, а потусторонние силы не дают местным покоя. Ему и 10-летней сироте Анне предстоит понять намерения призраков и столкнуться с величайшим ужасом в их жизни.



Страна: Венгрия
Студия: Szupermodern Stúdió
Продолжительность: 01:55:21
Перевод: Дублированный - студия "кипарис" по заказу компании Capella Film



Информация о файле:
Кодек: AVC
Формат: MKV
Качество: HDRip-AVC
Видео: MPEG-4 AVC, 1024x430, 23.976 fps, 1890 kb/s
Аудио RU: AC3, 6 ch, 48 kHz, 384 kbps
Субтитры: Русские, английские, немецкие



[x264] frame I:1498 Avg QP:11.39 size: 64064
[x264] frame P:34204 Avg QP:14.59 size: 21440
[x264] frame B:130419 Avg QP:15.27 size: 6159
General
Unique ID : 305132301578147540401428532043739229666 (0xE58E57FA2967416CBD239606E216EDE2)
Complete name : D:uTorrentРипы wolf1245Post Mortem.2020.DUB.Kiparis.x264.HDRip-AVC.[wolf1245.ExKinoRay].mkv
Format : Matroska
Format version : Version 4
File size : 1.83 GiB
Duration : 1 h 55 min
Overall bit rate : 2 273 kb/s
Movie name : Post Mortem.2020.DUB.Kiparis.x264.HDRip-AVC.[wolf1245.ExKinoRay]
Encoded date : UTC 2022-06-04 09:36:19
Writing application : mkvmerge v68.0.0 ('The Curtain') 64-bit
Writing library : libebml v1.4.2 + libmatroska v1.6.4
Video
ID : 1
Format : AVC
Format/Info : Advanced Video Codec
Format profile : [email protected]
Format settings : CABAC / 10 Ref Frames
Format settings, CABAC : Yes
Format settings, Reference frames : 10 frames
Codec ID : V_MPEG4/ISO/AVC
Duration : 1 h 55 min
Bit rate : 1 890 kb/s
Width : 1 024 pixels
Height : 430 pixels
Display aspect ratio : 2.40:1
Frame rate mode : Constant
Frame rate : 24.000 FPS
Color space : YUV
Chroma subsampling : 4:2:0
Bit depth : 8 bits
Scan type : Progressive
Bits/(Pixel*Frame) : 0.179
Stream size : 1.52 GiB (83%)
Title : -=[wolf1245.ExKinoRay]=-
Writing library : x264 core 163
Encoding settings : cabac=1 / ref=10 / deblock=1:-1:-1 / analyse=0x3:0x133 / me=umh / subme=11 / psy=1 / psy_rd=1.00:0.15 / mixed_ref=1 / me_range=32 / chroma_me=1 / trellis=2 / 8x8dct=1 / cqm=0 / deadzone=21,11 / fast_pskip=1 / chroma_qp_offset=-3 / threads=10 / lookahead_threads=2 / sliced_threads=0 / nr=0 / decimate=0 / interlaced=0 / bluray_compat=0 / constrained_intra=0 / bframes=10 / b_pyramid=2 / b_adapt=2 / b_bias=0 / direct=3 / weightb=1 / open_gop=0 / weightp=2 / keyint=240 / keyint_min=24 / scenecut=40 / intra_refresh=0 / rc_lookahead=100 / rc=2pass / mbtree=0 / bitrate=1890 / ratetol=1.0 / qcomp=0.60 / qpmin=0 / qpmax=69 / qpstep=4 / cplxblur=20.0 / qblur=0.5 / vbv_maxrate=50000 / vbv_bufsize=62500 / nal_hrd=none / filler=0 / ip_ratio=1.40 / pb_ratio=1.30 / aq=1:1.10
Language : Hungarian
Default : Yes
Forced : No
Color range : Limited
Color primaries : BT.709
Transfer characteristics : BT.709
Matrix coefficients : BT.709
Audio
ID : 2
Format : AC-3
Format/Info : Audio Coding 3
Commercial name : Dolby Digital
Codec ID : A_AC3
Duration : 1 h 55 min
Bit rate mode : Constant
Bit rate : 384 kb/s
Channel(s) : 6 channels
Channel layout : L R C LFE Ls Rs
Sampling rate : 48.0 kHz
Frame rate : 31.250 FPS (1536 SPF)
Compression mode : Lossy
Stream size : 317 MiB (17%)
Title : DUB | KIPARIS | RUS
Language : Russian
Service kind : Complete Main
Default : Yes
Forced : No
Text #1
ID : 3
Format : UTF-8
Codec ID : S_TEXT/UTF8
Codec ID/Info : UTF-8 Plain Text
Duration : 1 h 52 min
Bit rate : 37 b/s
Count of elements : 928
Stream size : 30.8 KiB (0%)
Language : Russian
Default : No
Forced : No
Text #2
ID : 4
Format : UTF-8
Codec ID : S_TEXT/UTF8
Codec ID/Info : UTF-8 Plain Text
Duration : 1 h 50 min
Bit rate : 21 b/s
Count of elements : 639
Stream size : 17.0 KiB (0%)
Language : English
Default : No
Forced : No
Text #3
ID : 5
Format : UTF-8
Codec ID : S_TEXT/UTF8
Codec ID/Info : UTF-8 Plain Text
Duration : 1 h 50 min
Bit rate : 29 b/s
Count of elements : 731
Stream size : 23.9 KiB (0%)
Language : German
Default : No
Forced : No
Menu
00:00:00.000 : :Kapitel 01
00:03:24.458 : :Kapitel 02
00:33:07.833 : :Kapitel 03
00:48:47.083 : :Kapitel 04
01:22:12.583 : :Kapitel 05
01:42:06.875 : :Kapitel 06
Релиз от:
Автор релиза:
pb.wtf



Скачать Пост Мортем через торрент https://i7.imageban.ru/out/2022/06/04/246b605aa31b34bc4aa747cd8cee19a3.jpg Скачать, смотреть онлайн Пост Мортем бесплантно в хорошем качестве Описание: В конце XIX - начале XX века широкое распространение получило понятие «пост мортем» - посмертные снимки в память об умерших ... 10 10 2
Торрент: Зарегистрирован [2022-06-04 09:52] · скачан: 53 раз
Статус: √ проверено
Размер: 1.83 GB
Как cкачать? Как скачать Пост Мортем через торрент | UTorrent

28-11-2019 20:33  

Отключить вcю реклaмy на сайте

    Дорогой пользователь! Огромная просьба, поблагодарите релизера, оцените раздачу и оставьте свои комментарий, если Вы скачали Пост Мортем через торрент бесплатно!
    Комментировать посты могут только пользователи прошедшие не сложную регистрацию
    Показать сообщения:    

    Пост Мортем через торрент
    Скачать бесплатно Пост Мортем
    Пост Мортем скачать торрент
    Пост Мортем смотреть онлайн
    Cкачать фильм Пост Мортем бесплатно
    Пост Мортем скачать торрент в хорошем качестве
    Пост Мортем смотреть онлайн бесплатно в хорошем качестве


    Вы не можете начинать темы
    Вы не можете отвечать на сообщения
    Вы не можете редактировать свои сообщения
    Вы не можете удалять свои сообщения
    Вы не можете голосовать в опросах
    Вы не можете прикреплять файлы к сообщениям
    Вы можете скачивать файлы