Доктор Стрэндж

Лицензия

Добыча

Дубляж

Дом дракона

1 сезон

Тор

Дубляж

В эфире

Дубляж

Там, где раки поют

MVO

Властелин колец

1 сезон

Deluxe

pack

Рекомендуем

30

Пиратка

ВАЖНО

ВАЖНО

Ghostwire

Пиратка

jed

RePack

nioh2

RePack

RDR2

RePack

NEED FOR SPEED™ PAYBACK

RePack

скачать торрент

Кинопоиск HD

Острые козырьки 6 сезон

6 сезон

FAR CRY 6

RePack

скачать торрент

Лицензия

скачать торрент

MVO

1

1 сезон

скачать торрент

1 сезон

скачать торрент

Лицензия

  

Пылающее море / Nordsjøen / North Sea / The Burning Sea (Йон Андреас Андерсен) [2021, Боевик, катастрофа, UHD BDRemux 2160p, (Dolby Vision Profile 8)] Дубляж [КиноПоиск HD]

Пылающее море через торрент pb.wtf

Качают: 1 [ 0 KB/s ]
Размер: 56.77 GB | Добавлен: 5 мес. 28 д. назад | Торрент скачан:43 раза
Смотреть онлайн | Скачать   

05-06-2022 05:20 Пылающее море Скачать торрент  

Пылающее море
Nordsjøen | North Sea | The Burning Sea

Год выпуска: 2021
Страна: Норвегия
Выпущено: Fantefilm
Жанр: Боевик, катастрофа
Продолжительность: 01:45:56
Перевод: Дублированный | КиноПоиск HD
Субтитры: отсутствуют

Режиссер: Йон Андреас Андерсен

rating

В ролях: Кристин Куят Торп, Хенрик Бьельланд, Рольф Кристиан Ларсен, Андерс Босмо Кристиансен, Бьёрн Флоберг, Хальфдан Хальсет, Ренате Хеллеруд, Арилд Сондре Сексе, Матильда Остергор Ипсой, Пол Андерс Нордви

Описание: Когда на нефтяной платформе на норвежском побережье происходит авария, исследователи пытаются определить причины случившегося и понимают, что это лишь начало куда более серьезной катастрофы.

Качество: UHD BDRemux 2160p | Dolby Vision Profile 8
Формат: MKV

Видео: 3840x2160 at 23.976 fps, MPEG-H HEVC HDR, Dolby Vision Video ~ 72100 kbps avg
Аудио #01: 48 kHz, AC3, 5.1, 448 Kbps | Дублированный | Кинопоиск HD | RUS |
Аудио #02: 48 kHz, TrueHD, 7.1, 3742 Kbps | Оригинал | ENG |
Аудио #03: 48 kHz, AC3, 5.1, 384 Kbps | Оригинал | ENG |
скриншот  скриншот  скриншот  скриншот  скриншот  

MI
General
Unique ID : 158066370848375540372089206992711770806 (0x76EA79C6477950F4DF4D729635E0E2B6)
Complete name : E:Video1The.Burning.Sea.2021.BDREMUX.2160p.HDR.DVP8.seleZen.mkv
Format : Matroska
Format version : Version 4
File size : 56.8 GiB
Duration : 1 h 45 min
Overall bit rate mode : Variable
Overall bit rate : 76.7 Mb/s
Movie name : The Burning Sea 2021 from seleZen
Encoded date : UTC 2022-06-04 15:04:09
Writing application : mkvmerge v59.0.0 ('Shining Star') 64-bit
Writing library : libebml v1.4.2 + libmatroska v1.6.4

Video
ID : 1
ID in the original source m: 4117 (0x1015)
Format : HEVC
Format/Info : High Efficiency Video Coding
Format profile : Main [email protected]@High
HDR format : Dolby Vision, Version 1.0, dvhe.08.06, BL+RPU, Blu-ray compatible / SMPTE ST 2086, HDR10 compatible
Codec ID : V_MPEGH/ISO/HEVC
Duration : 1 h 45 min
Bit rate : 72.1 Mb/s
Width : 3 840 pixels
Height : 2 160 pixels
Display aspect ratio : 16:9
Frame rate mode : Constant
Frame rate : 23.976 (24000/1001) FPS
Color space : YUV
Chroma subsampling : 4:2:0 (Type 2)
Bit depth : 10 bits
Bits/(Pixel*Frame) : 0.362
Stream size : 53.3 GiB (94%)
Language : English
Default : No
Forced : No
Color range : Limited
Color primaries : BT.2020
Transfer characteristics : PQ
Matrix coefficients : BT.2020 non-constant
Mastering display color pri: Display P3
Mastering display luminance: min: 0.0001 cd/m2, max: 1000 cd/m2
Original source medium : Blu-ray

Audio #1
ID : 2
Format : AC-3
Format/Info : Audio Coding 3
Commercial name : Dolby Digital
Codec ID : A_AC3
Duration : 1 h 45 min
Bit rate mode : Constant
Bit rate : 448 kb/s
Channel(s) : 6 channels
Channel layout : L R C LFE Ls Rs
Sampling rate : 48.0 kHz
Frame rate : 31.250 FPS (1536 SPF)
Compression mode : Lossy
Stream size : 339 MiB (1%)
Title : Дубляж
Language : Russian
Service kind : Complete Main
Default : Yes
Forced : Yes

Audio #2
ID : 3
Format : MLP FBA 16-ch
Format/Info : Meridian Lossless Packing FBA with 16-channel presentation
Commercial name : Dolby TrueHD with Dolby Atmos
Codec ID : A_TRUEHD
Duration : 1 h 45 min
Bit rate mode : Variable
Bit rate : 3 742 kb/s
Maximum bit rate : 7 701 kb/s
Channel(s) : 8 channels
Channel layout : L R C LFE Ls Rs Lb Rb
Sampling rate : 48.0 kHz
Frame rate : 1 200.000 FPS (40 SPF)
Compression mode : Lossless
Stream size : 2.77 GiB (5%)
Title : Original
Language : English
Default : No
Forced : No
Number of dynamic objects : 11
Bed channel count : 1 channel
Bed channel configuration : LFE

Audio #3
ID : 4
Format : AC-3
Format/Info : Audio Coding 3
Commercial name : Dolby Digital
Codec ID : A_AC3
Duration : 1 h 45 min
Bit rate mode : Constant
Bit rate : 384 kb/s
Channel(s) : 6 channels
Channel layout : L R C LFE Ls Rs
Sampling rate : 48.0 kHz
Frame rate : 31.250 FPS (1536 SPF)
Compression mode : Lossy
Stream size : 291 MiB (1%)
Language : English
Service kind : Complete Main
Default : No
Forced : No

Menu
00:00:00.000 : Глава 01
00:07:07.427 : Глава 02
00:13:43.823 : Глава 03
00:23:43.422 : Глава 04
00:31:04.863 : Глава 05
00:39:47.385 : Глава 06
00:46:30.371 : Глава 07
00:57:27.444 : Глава 08
01:07:10.026 : Глава 09
01:14:01.437 : Глава 10
01:21:08.864 : Глава 11
01:30:07.402 : Глава 12
01:38:21.896 : Глава 13




Скачать Пылающее море через торрент https://i120.fastpic.org/big/2022/0605/c7/c86e7789914cecdbdd9081dbffb4cbc7.jpg Скачать, смотреть онлайн Пылающее море бесплантно в хорошем качестве Описание: Когда на нефтяной платформе на норвежском побережье происходит авария, исследователи пытаются определить причины случившегося и ... 10 10 3
Торрент: Зарегистрирован [2022-06-05 05:20] · скачан: 43 раз
Статус: √ проверено
Размер: 56.77 GB
Как cкачать? Как скачать Пылающее море через торрент | UTorrent

% Раздел Тема Автор DL S | L
Фильмы 2021 [DVDrip, WEB-DLRip, HDrip] (DUB, MVO) [ 1.46 GB ] Пылающее море / Nordsjøen / North Sea / The Burning Sea | Кинопоиск HD | BDRip Twi7ter Скачать
31 | 1

28-11-2019 20:33  


Отключить вcю реклaмy на сайте, в т.ч. и в плеере онлайн просмотра!

    Дорогой пользователь! Огромная просьба, поблагодарите релизера, оцените раздачу и оставьте свои комментарий, если Вы скачали Пылающее море через торрент бесплатно!!
    Комментировать посты могут только пользователи прошедшие не сложную регистрацию
    Показать сообщения:    


    Пылающее море через торрент
    Скачать бесплатно Пылающее море
    Пылающее море скачать торрент
    Пылающее море смотреть онлайн
    Cкачать фильм Пылающее море бесплатно
    Пылающее море скачать торрент в хорошем качестве
    Пылающее море смотреть онлайн бесплатно в хорошем качестве
    Вы не можете начинать темы
    Вы не можете отвечать на сообщения
    Вы не можете редактировать свои сообщения
    Вы не можете удалять свои сообщения
    Вы не можете голосовать в опросах
    Вы не можете прикреплять файлы к сообщениям
    Вы можете скачивать файлы
    Пылающее море / Nordsjøen / North Sea / The Burning Sea [2021, Боевик, катастрофа, UHD BDRemux 2160p, ] Дубляж [КиноПоиск HD] смотреть онлайн, скачать торрент picoco.icu