Всегда рабочее зеркало без VPN и Proxy просто перед .vidak.icu напиши любое слово или цифру, Пример http://towy.vidak.icu

MVO

Лицензия

1 сезон

1

1 сезон

iTunes

1 сезон

13

1 сезон

Deluxe

pack

Рекомендуем

Пиратка

30

ВАЖНО

RePack

MK11

RePack

jed

RePack

fifa19

RePack

RDR2

RePack

NEED FOR SPEED™ PAYBACK

Кинопоиск HD

6 сезон

 Острые козырьки 6 сезон

Все сериалы

все сериалы на PB.wtf

RePack

FAR CRY 5

Anonymous, нам критически не хватает 2100 руб. на оплату серверов и переферии за МАЙ, помоги нам пожалуйста, вся надежда только на тебя. В благодарность мы отключим тебе всю рекламу на сайте!

×
  
Magnet ссылка

Кролецып и Хомяк Тьмы / Chickenhare and the Hamster of Darkness (Бен Стассен, Бенжамен Муске) [2022 г., Мультфильм, мелодрама, комедия, WEB-DLRip 720p / 60 FPS, Дубляж iTunes] от R.G. HD-Films pb.wtf

Кролецып и Хомяк Тьмы через торрент pb.wtf

Раздают: 15 [ 248 KB/s ] Качают: 2 [ 172 KB/s ]
Размер: 3.2 GB | Добавлен: 23 д. назад | Торрент скачан:164 раза
Смотреть онлайн Кролецып и Хомяк Тьмы | Скачать    Ребята, помогите собрать деньги на оплату серверов!!!

05-06-2022 13:20 Кролецып и Хомяк Тьмы Скачать торрент  

Кролецып и Хомяк Тьмы / Chickenhare and the Hamster of Darkness
Год выпуска: 2022
Страна: Бельгия, Франция
Жанр: Мультфильм, мелодрама, комедия
Продолжительность: 01:27:55
Перевод: Дубляж iTunes

Режиссер: Бен Стассен, Бенжамен Муске

Премьера в мире: 16 февраля 2022

rating

В ролях: Тома Соливерес, Хлоя Жуанне, Николя Мори, Фредерик Попович, Антуан Шумский, Ричард Ле Руссель, Антуан Фере, Лорен Жаке, Николя Бушу, Алан Обер
Роли дублировали:Максим Якимов, Полина Кузьминская, Артур Иванов, Владислав Копп, Дмитрий Филимонов

Описание: Харизматичный и отважный Кролецып больше всего на свете мечтает стать искателем приключений. Наполовину кролик, наполовину цыплёнок — он сочетает лучшие качества обоих животных. Когда его дому угрожает опасность, он отправляется в авантюрное путешествие по удивительным местам, чтобы найти древний артефакт — таинственного Хомяка Тьмы.

Качество: WEB-DLRip 720p / 60 FPS
Формат: MKV
Видео кодек: H.264
Аудио кодек: AC3
Видео: x264, 1280 x 544 ( 2,35:1 ), 4824 kbps, 60,000 fps, ( 0.115 bpp)
Аудио#1: Русский, AC-3, 48.0 KHz, 6 ch, 384 Kbps Dub ( iTunes )
Релиз от: Автор рипа: slaventi-69
x264 [info]: profile High, level 4.1
x264 [info]: frame I:1699 Avg QP:14.09 size: 91769
x264 [info]: frame P:77805 Avg QP:15.30 size: 23312
x264 [info]: frame B:236997 Avg QP:18.01 size: 5109
x264 [info]: consecutive B-frames: 2.9% 2.5% 8.0% 35.1% 28.6% 23.0%


Общее
Уникальный идентификатор : 52698546188599656320598625086968779480 (0x27A55EED9A4BE2B713F20CD29C6952D8)
Полное имя : G:\60 FPS\Chickenhare.and.the.Hamster.of.Darkness(2022).WEB-DLRip.720p.(60 Fps).mkv
Формат : Matroska
Версия формата : Version 4
Размер файла : 3,20 Гбайт
Продолжительность : 1 ч. 27 м.
Общий поток : 5211 Кбит/сек
Название фильма : Кролецып и Хомяк Тьмы / Chickenhare and the Hamster of Darkness / Hopper et le hamster des ténèbres (2022) WEB-DLRip 720p (60 Fps)
Дата кодирования : UTC 2022-06-05 12:59:19
Программа кодирования : mkvmerge v25.0.0 ('Prog Noir') 64-bit
Библиотека кодирования : libebml v1.3.6 + libmatroska v1.4.9

Видео
Идентификатор : 1
Формат : AVC
Формат/Информация : Advanced Video Codec
Профиль формата : High@L4.1
Настройки формата : CABAC / 9 Ref Frames
Параметр CABAC формата : Да
Параметр RefFrames формата : 9 кадров
Идентификатор кодека : V_MPEG4/ISO/AVC
Продолжительность : 1 ч. 27 м.
Битрейт : 4824 Кбит/сек
Ширина : 1280 пикселей
Высота : 544 пикселя
Соотношение сторон : 2,35:1
Режим частоты кадров : Постоянный
Частота кадров : 60,000 кадров/сек
Цветовое пространство : YUV
Субдискретизация насыщенности : 4:2:0
Битовая глубина : 8 бит
Тип развёртки : Прогрессивная
Бит/(Пиксели*Кадры) : 0.115
Размер потока : 2,96 Гбайт (93%)
Заголовок : slaventi-69 ( R.G. HD-Films | 60 fps )
Библиотека кодирования : x264 core 130 r2273 b3065e6
Настройки программы : cabac=1 / ref=9 / deblock=1:-3:-3 / analyse=0x3:0x133 / me=umh / subme=9 / psy=1 / psy_rd=1.00:0.00 / mixed_ref=1 / me_range=32 / chroma_me=1 / trellis=2 / 8x8dct=1 / cqm=0 / deadzone=21,11 / fast_pskip=0 / chroma_qp_offset=-2 / threads=8 / lookahead_threads=4 / sliced_threads=0 / nr=0 / decimate=1 / interlaced=0 / bluray_compat=0 / constrained_intra=0 / bframes=5 / b_pyramid=2 / b_adapt=2 / b_bias=0 / direct=1 / weightb=1 / open_gop=0 / weightp=2 / keyint=600 / keyint_min=23 / scenecut=40 / intra_refresh=0 / rc=crf / mbtree=0 / crf=15.2 / qcomp=0.60 / qpmin=0 / qpmax=69 / qpstep=4 / ip_ratio=1.40 / pb_ratio=1.30 / aq=1:1.00
Default : Да
Forced : Нет

Аудио
Идентификатор : 2
Формат : AC-3
Формат/Информация : Audio Coding 3
Коммерческое название : Dolby Digital
Идентификатор кодека : A_AC3
Продолжительность : 1 ч. 27 м.
Вид битрейта : Постоянный
Битрейт : 384 Кбит/сек
Каналы : 6 каналов
Channel layout : L R C LFE Ls Rs
Частота : 48,0 КГц
Частота кадров : 31,250 кадров/сек (1536 SPF)
Битовая глубина : 16 бит
Метод сжатия : С потерями
Размер потока : 241 Мбайт (7%)
Заголовок : Dub ( iTunes )
Язык : Russian
ServiceKind/String : Complete Main
Default : Да
Forced : Нет

Меню
00:00:00.000 : en:Глава 1
00:04:27.000 : en:Глава 2
00:10:45.200 : en:Глава 3
00:17:22.880 : en:Глава 4
00:24:36.760 : en:Глава 5
00:31:43.160 : en:Глава 6
00:39:53.360 : en:Глава 7
00:46:09.080 : en:Глава 8
00:55:46.840 : en:Глава 9
01:01:18.840 : en:Глава 10
01:09:29.760 : en:Глава 11
01:20:36.080 : en:Глава 12

Просьба к переливающим на другие сайты, в оформлении указывайте пожалуйста авторство группы R.G. HD-Films pb.wtf



Скачать Кролецып и Хомяк Тьмы через торрент https://i120.fastpic.org/big/2022/0525/c4/e71f56cf1b052acdb103b0c3889051c4.jpg Скачать, смотреть онлайн Кролецып и Хомяк Тьмы бесплантно в хорошем качестве Описание: Харизматичный и отважный Кролецып больше всего на свете мечтает стать искателем приключений. Наполовину кролик, наполовину ... 10 10 5
Торрент: Зарегистрирован [2022-06-05 13:20] · скачан: 164 раз
Статус: √ проверено
Размер: 3.2 GB
Как cкачать? Как скачать Кролецып и Хомяк Тьмы через торрент | UTorrent

28-11-2019 20:33  

Отключить всю рекламу на сайте

05-06-2022 18:14 Кролецып и Хомяк Тьмы Скачать торрент  

скачаю что бы не забыдь, но жду 1080 в нормальных >30 фпс, под которые и создавался видео ряд
в 60 фпс ничего плохого нет если режиссёр это учитывал при созданииpb.wtf



    Дорогой пользователь! Огромная просьба, поблагодарите релизера, оцените раздачу и оставьте свои комментарий, если Вы скачали Кролецып и Хомяк Тьмы через торрент бесплатно!
    Комментировать посты могут только пользователи прошедшие не сложную регистрацию
    Показать сообщения:    

    Кролецып и Хомяк Тьмы через торрент
    Скачать бесплатно Кролецып и Хомяк Тьмы
    Кролецып и Хомяк Тьмы скачать торрент
    Кролецып и Хомяк Тьмы смотреть онлайн
    Cкачать фильм Кролецып и Хомяк Тьмы бесплатно
    Кролецып и Хомяк Тьмы скачать торрент в хорошем качестве
    Кролецып и Хомяк Тьмы смотреть онлайн бесплатно в хорошем качестве


    Вы не можете начинать темы
    Вы не можете отвечать на сообщения
    Вы не можете редактировать свои сообщения
    Вы не можете удалять свои сообщения
    Вы не можете голосовать в опросах
    Вы не можете прикреплять файлы к сообщениям
    Вы можете скачивать файлы