Доктор Стрэндж

Лицензия

Добыча

MVO

Дом дракона

1 сезон

Тор

Лицензия

Мэверик

Лицензия

Там, где раки поют

MVO

Властелин колец

1 сезон

Ultimate

pack

Рекомендуем

30

Repack

ВАЖНО

ВАЖНО

Ghostwire

RePack

jed

RePack

nioh2

RePack

RDR2

RePack

NEED FOR SPEED™ PAYBACK

RePack

скачать торрент

Кинопоиск HD

Острые козырьки 6 сезон

6 сезон

FAR CRY 6

RePack

скачать торрент

Лицензия

скачать торрент

MVO

1

1 сезон

скачать торрент

1 сезон

скачать торрент

Лицензия

  

Паранормальные / De uskyldige / The Innocents (Эскиль Вогт) [2021, Драма, фантастика, ужасы, BDRip 1080p] MVO (rus, ukr) [Велес / iTunes]

Паранормальные через торрент pb.wtf

Раздают: 1 [ 0 KB/s ]
Размер: 15.28 GB | Добавлен: 3 мес. 29 д. назад | Торрент скачан:182 раза
Смотреть онлайн | Скачать   

06-06-2022 03:00 Паранормальные Скачать торрент  

Паранормальные
De uskyldige
The Innocents

Год выпуска: 2021
Страна: Норвегия, Швеция, Дания, Великобритания, Франция, Финляндия
Студия: BUFO, Det Danske Filminstitut, Don't Look Now, DR, Eurimages, Film i Väst, Finnish Film Foundation, Logical Pictures, Mer Film, Nordisk Film- & TV-Fond, Norsk Filminstitutt, Protagonist Pictures, Snowglobe Films, Svenska Filminstitutet (SFI), Yleisradio (YLE), Zefyr Media Fund, Zentropa International Sweden
Жанр: Драма, фантастика, ужасы
Продолжительность: 01:57:11
Перевод: Профессиональный (многоголосый, закадровый) | Велес | iTunes
Субтитры: Русские (Full), английские, украинские (Full)

Режиссер: Эскиль Вогт

rating

В ролях: Ракель Ленора Флоттум, Алва Бринсмо Рамстад, Сэм Ашраф, Мина Ясмин Асхэйм, Эллен Доррит Петерсен, Мортен Свартвейт, Кадра Юсуф, Лиза Тэнне, Ирина Эйдсвольд Тэйен, Мариус Кольбенстведт

Описание: С родителями и старшей сестрой-аутисткой Анной девятилетняя Ида переезжает в новую квартиру. Гуляя во дворе, она знакомится с соседским мальчиком Бэном, обладающим телекинезом, и девочкой Аишей, которая внезапно устанавливает телепатическую связь с Анной. Сверхъестественные способности детей начинают усиливаться.

Качество: BDRip 1080p
Формат: MKV

Видео: MPEG-4 AVC, 17.4 Мбит/с, 1920x804
Аудио#1: Русский (АС3, 6 ch, 384 Кбит/с)
Аудио#2: украинский (АС3, 2 ch, 192 Кбит/с)
Аудио#3: норвежский (АС3, 6 ch, 640 Кбит/с)
скриншот  скриншот  скриншот  скриншот  

Complete name : Paranormalnyie.2021.BDRip.1080p.ELEKTRI4KA.UNIONGANG.mkv
Format : Matroska
Format version : Version 4
File size : 15.3 GiB
Duration : 1 h 57 min
Overall bit rate : 18.7 Mb/s
Movie name : Paranormalnyie.2021.BDRip.1080p.ELEKTRI4KA.UNIONGANG.
Encoded date : UTC 2022-06-05 20:25:07
Writing application : mkvmerge v8.3.0 ('Over the Horizon') 32bit
Writing library : libebml v1.3.1 + libmatroska v1.4.2

Video
ID : 1
Format : AVC
Format/Info : Advanced Video Codec
Format profile : [email protected]
Format settings : CABAC / 4 Ref Frames
Format settings, CABAC : Yes
Format settings, Reference frames : 4 frames
Codec ID : V_MPEG4/ISO/AVC
Duration : 1 h 57 min
Bit rate : 17.4 Mb/s
Width : 1 920 pixels
Height : 804 pixels
Display aspect ratio : 2.40:1
Frame rate mode : Constant
Frame rate : 24.000 FPS
Color space : YUV
Chroma subsampling : 4:2:0
Bit depth : 8 bits
Scan type : Progressive
Bits/(Pixel*Frame) : 0.471
Stream size : 14.3 GiB (93%)
Writing library : x264 core 164 r3079+60M cd8c3e1 devel [(8 & 10)[email protected] X86_64]
Encoding settings : cabac=1 / ref=4 / deblock=1:-3:-3 / analyse=0x3:0x133 / me=umh / subme=11 / psy=1 / fade_compensate=0.00 / psy_rd=1.00:0.00 / mixed_ref=1 / me_range=32 / chroma_me=1 / trellis=2 / 8x8dct=1 / cqm=0 / deadzone=21,11 / fast_pskip=1 / chroma_qp_offset=-2 / threads=32 / lookahead_threads=6 / sliced_threads=0 / nr=0 / decimate=1 / interlaced=0 / bluray_compat=0 / constrained_intra=0 / fgo=0 / bframes=10 / b_pyramid=2 / b_adapt=2 / b_bias=0 / direct=3 / weightb=1 / open_gop=0 / weightp=2 / keyint=250 / keyint_min=24 / scenecut=40 / intra_refresh=0 / rc=crf / mbtree=0 / crf=17.0000 / qcomp=0.65 / qpmin=0:0:0 / qpmax=69:69:69 / qpstep=4 / ip_ratio=1.25 / pb_ratio=1.20 / aq=1:0.60 / aq-sensitivity=10.00 / aq-factor=1.00:1.00:1.00 / aq2=0 / aq3=0
Language : Norwegian
Default : Yes
Forced : No

Audio #1
ID : 2
Format : AC-3
Format/Info : Audio Coding 3
Commercial name : Dolby Digital
Codec ID : A_AC3
Duration : 1 h 57 min
Bit rate mode : Constant
Bit rate : 384 kb/s
Channel(s) : 6 channels
Channel layout : L R C LFE Ls Rs
Sampling rate : 48.0 kHz
Frame rate : 31.250 FPS (1536 SPF)
Compression mode : Lossy
Stream size : 322 MiB (2%)
Title : MVO (iTunes)
Language : Russian
Service kind : Complete Main
Default : Yes
Forced : Yes

Audio #2
ID : 3
Format : AC-3
Format/Info : Audio Coding 3
Commercial name : Dolby Digital
Codec ID : A_AC3
Duration : 1 h 57 min
Bit rate mode : Constant
Bit rate : 192 kb/s
Channel(s) : 2 channels
Channel layout : L R
Sampling rate : 48.0 kHz
Frame rate : 31.250 FPS (1536 SPF)
Compression mode : Lossy
Stream size : 161 MiB (1%)
Title : MVO (V odne rilo)
Language : Ukrainian
Service kind : Complete Main
Default : No
Forced : No

Audio #3
ID : 4
Format : AC-3
Format/Info : Audio Coding 3
Commercial name : Dolby Digital
Codec ID : A_AC3
Duration : 1 h 57 min
Bit rate mode : Constant
Bit rate : 640 kb/s
Channel(s) : 6 channels
Channel layout : L R C LFE Ls Rs
Sampling rate : 48.0 kHz
Frame rate : 31.250 FPS (1536 SPF)
Compression mode : Lossy
Stream size : 536 MiB (3%)
Title : Original
Language : Norwegian
Service kind : Complete Main
Default : No
Forced : No

Text #1
ID : 5
Format : UTF-8
Codec ID : S_TEXT/UTF8
Codec ID/Info : UTF-8 Plain Text
Duration : 1 h 49 min
Bit rate : 25 b/s
Count of elements : 589
Stream size : 20.7 KiB (0%)
Title : Full
Language : Russian
Default : No
Forced : No

Text #2
ID : 6
Format : UTF-8
Codec ID : S_TEXT/UTF8
Codec ID/Info : UTF-8 Plain Text
Duration : 1 h 49 min
Bit rate : 23 b/s
Count of elements : 599
Stream size : 18.5 KiB (0%)
Title : Full
Language : Ukrainian
Default : No
Forced : No

Text #3
ID : 7
Format : UTF-8
Codec ID : S_TEXT/UTF8
Codec ID/Info : UTF-8 Plain Text
Duration : 1 h 51 min
Bit rate : 15 b/s
Count of elements : 515
Stream size : 12.5 KiB (0%)
Language : English
Default : No
Forced : No

Menu
00:00:00.000 : en:Chapter 01
00:14:17.750 : en:Chapter 02
00:30:34.500 : en:Chapter 03
00:41:36.625 : en:Chapter 04
00:56:13.792 : en:Chapter 05
01:08:16.833 : en:Chapter 06
01:21:10.583 : en:Chapter 07
01:37:49.042 : en:Chapter 08




Скачать Паранормальные через торрент https://i120.fastpic.org/big/2022/0606/59/d54b9242285b4f1fae4a5166ff592659.jpg Скачать, смотреть онлайн Паранормальные бесплантно в хорошем качестве Описание: С родителями и старшей сестрой-аутисткой Анной девятилетняя Ида переезжает в новую квартиру. Гуляя во дворе, она знакомится с ... 9.3 10 4
Торрент: Зарегистрирован [2022-06-06 03:00] · скачан: 182 раз
Статус: √ проверено
Размер: 15.28 GB
Как cкачать? Как скачать Паранормальные через торрент | UTorrent

% Раздел Тема Автор DL S | L
Фильмы 2021 [DVDrip, WEB-DLRip, HDrip] (DUB, MVO) [ 717 MB ] Паранормальные / De uskyldige | iTunes" | HDRip MVO закадровый "iTunes" coc900 Скачать
1 | 0
Фильмы 2021 [DVDrip, WEB-DLRip, HDrip] (DUB, MVO) [ 2.02 GB ] Паранормальные / De uskyldige | iTunes | HDRip-AVC Lithuania Скачать
1 | 0
Фильмы [HD 720p, 1080p] (Хороший звук DUB, MVO) [ 3.6 GB ] Паранормальные / De uskyldige / The Innocents | iTunes | 720p bober100 Скачать
2 | 0
Фильмы 2021 [DVDrip, WEB-DLRip, HDrip] (DUB, MVO) [ 2.13 GB ] Паранормальные / De uskyldige / The Innocents | iTunes | BDRip bober100 Скачать
1 | 0
Фильмы 2021 [DVDrip, WEB-DLRip, HDrip] (DUB, MVO) [ 1.41 GB ] Паранормальные / De uskyldige / The Innocents | iTunes | BDRip bober100 Скачать
3 | 0

28-11-2019 20:33  


Отключить вcю реклaмy на сайте, в т.ч. и в плеере онлайн просмотра!

    Дорогой пользователь! Огромная просьба, поблагодарите релизера, оцените раздачу и оставьте свои комментарий, если Вы скачали Паранормальные через торрент бесплатно!!
    Комментировать посты могут только пользователи прошедшие не сложную регистрацию
    Показать сообщения:    


    Паранормальные через торрент
    Скачать бесплатно Паранормальные
    Паранормальные скачать торрент
    Паранормальные смотреть онлайн
    Cкачать фильм Паранормальные бесплатно
    Паранормальные скачать торрент в хорошем качестве
    Паранормальные смотреть онлайн бесплатно в хорошем качестве
    Вы не можете начинать темы
    Вы не можете отвечать на сообщения
    Вы не можете редактировать свои сообщения
    Вы не можете удалять свои сообщения
    Вы не можете голосовать в опросах
    Вы не можете прикреплять файлы к сообщениям
    Вы можете скачивать файлы