Всегда рабочее зеркало без VPN и Proxy просто перед .vidak.icu напиши любое слово или цифру, Пример http://pis0.vidak.icu

MVO

MVO

1 сезон

1

1 сезон

iTunes

1 сезон

13

1 сезон

Deluxe

pack

Рекомендуем

Repack

30

ВАЖНО

RePack

MK11

RePack

jed

RePack

fifa19

RePack

RDR2

RePack

NEED FOR SPEED™ PAYBACK

Кинопоиск HD

6 сезон

 Острые козырьки 6 сезон

Все сериалы

все сериалы на PB.wtf

RePack

FAR CRY 5
  
Magnet ссылка

Женщины в чёрном / The Accursed (Кэтрин Мишель, Элижабета Видович) [2021, Ужасы, WEB-DLRip-AVC] DUB [KION] от ExKinoRay pb.wtf

Женщины в чёрном через торрент pb.wtf

Раздают: 1 [ 0 KB/s ]
Размер: 1.6 GB | Добавлен: 2 мес. 5 д. назад | Торрент скачан:29 раз
Смотреть онлайн Женщины в чёрном | Скачать    Ребята, помогите собрать деньги на оплату серверов!!!

06-06-2022 05:46 Женщины в чёрном Скачать торрент  


Женщины в чёрном / The Accursed
Информация о фильме:
Название: Женщины в чёрном
Оригинальное название: The Accursed
Год выхода: 2021
Жанр: Ужасы
Режиссер: Кэтрин Мишель, Элижабета Видович
В ролях: Горан Вишнич, Изабела Видович, Янси Батлер, Джордж Харрисон Ксантис, Майара Уолш, Мелора Уолтерс, Джена Карпентер, Мираж Грбич, Йен Фишер, Алла Туманян, Дэна Мелани, Брианна Джой Хромер, Мара Омальев, Элла Мише, Ник Кэссиди, Джейк Миллер, Майкл Фицджералд, Кристофер Рэми, Ривер Хосе, Дженис Маркам, Джоэнна Ке

Описание: На собственной свадьбе Санни узнает, что семья её жениха происходит из проклятого рода, женщины которого видят прошлое и будущее. Они предвидят, что невеста, только что ставшая женой, может уничтожить их род, выпустив древнее зло. Чтобы выжить, новобрачным надо разорвать родовое проклятье женщин в чёрном.



Страна: США
Студия: Almost Normal Productions, Blue Jean Baby Productions, Compound B, RMR Productions
Продолжительность: 01:21:06
Перевод: Дублированный - KION



Информация о файле:
Кодек: AVC
Формат: MKV
Качество: WEB-DLRip-AVC | Локализованная версия
Видео: MPEG-4 AVC, 1024x456, 25,000 fps, 1995 kb/s
Аудио RU: AC3, 6 ch, 48 kHz, 448 kbps
Аудио EN: AC3, 6 ch, 48 kHz, 384 kbps
Субтитры: Русские (полные), английские (полные)



x264 info: frame I:865 Avg QP:10.03 size: 44901
x264 info: frame P:27796 Avg QP:11.41 size: 21473
x264 info: frame B:93005 Avg QP:12.88 size: 6142
General
Unique ID : 106445141356559880288791246514558876204 (0x501496A91214D22E3763EB694B8C3A2C)
Complete name : D:uTorrentРипы wolf1245The Accursed.2021.DUB.KION.x264.WEB-DLRip-AVC.[wolf1245.ExKinoRay].mkv
Format : Matroska
Format version : Version 4
File size : 1.60 GiB
Duration : 1 h 21 min
Overall bit rate : 2 827 kb/s
Movie name : The Accursed.2021.DUB.KION.x264.WEB-DLRip-AVC.[wolf1245.ExKinoRay]
Encoded date : UTC 2022-06-05 19:34:43
Writing application : mkvmerge v68.0.0 ('The Curtain') 64-bit
Writing library : libebml v1.4.2 + libmatroska v1.6.4
Attachments : poster.jpeg
Video
ID : 1
Format : AVC
Format/Info : Advanced Video Codec
Format profile : [email protected]
Format settings : CABAC / 10 Ref Frames
Format settings, CABAC : Yes
Format settings, Reference frames : 10 frames
Codec ID : V_MPEG4/ISO/AVC
Duration : 1 h 21 min
Bit rate : 1 995 kb/s
Width : 1 024 pixels
Height : 456 pixels
Display aspect ratio : 2.25:1
Frame rate mode : Constant
Frame rate : 25.000 FPS
Color space : YUV
Chroma subsampling : 4:2:0
Bit depth : 8 bits
Scan type : Progressive
Bits/(Pixel*Frame) : 0.171
Stream size : 1.13 GiB (70%)
Title : -=[wolf1245.ExKinoRay]=-
Writing library : x264 core 163 r3060 5db6aa6
Encoding settings : cabac=1 / ref=10 / deblock=1:-2:-1 / analyse=0x3:0x133 / me=umh / subme=11 / psy=1 / psy_rd=0.98:0.07 / mixed_ref=1 / me_range=32 / chroma_me=1 / trellis=2 / 8x8dct=1 / cqm=0 / deadzone=22,11 / fast_pskip=1 / chroma_qp_offset=-3 / threads=10 / lookahead_threads=2 / sliced_threads=0 / nr=0 / decimate=0 / interlaced=0 / bluray_compat=0 / constrained_intra=0 / bframes=10 / b_pyramid=2 / b_adapt=2 / b_bias=0 / direct=3 / weightb=1 / open_gop=0 / weightp=2 / keyint=250 / keyint_min=25 / scenecut=40 / intra_refresh=0 / rc_lookahead=100 / rc=2pass / mbtree=0 / bitrate=1995 / ratetol=1.0 / qcomp=0.60 / qpmin=0 / qpmax=69 / qpstep=4 / cplxblur=20.0 / qblur=0.5 / vbv_maxrate=50000 / vbv_bufsize=62500 / nal_hrd=none / filler=0 / ip_ratio=1.40 / pb_ratio=1.30 / aq=1:1.10
Language : English
Default : Yes
Forced : No
Audio #1
ID : 2
Format : AC-3
Format/Info : Audio Coding 3
Commercial name : Dolby Digital
Codec ID : A_AC3
Duration : 1 h 21 min
Bit rate mode : Constant
Bit rate : 448 kb/s
Channel(s) : 6 channels
Channel layout : L R C LFE Ls Rs
Sampling rate : 48.0 kHz
Frame rate : 31.250 FPS (1536 SPF)
Compression mode : Lossy
Stream size : 260 MiB (16%)
Title : DUB | KION | RUS
Language : Russian
Service kind : Complete Main
Default : Yes
Forced : No
Audio #2
ID : 3
Format : AC-3
Format/Info : Audio Coding 3
Commercial name : Dolby Digital
Codec ID : A_AC3
Duration : 1 h 21 min
Bit rate mode : Constant
Bit rate : 384 kb/s
Channel(s) : 6 channels
Channel layout : L R C LFE Ls Rs
Sampling rate : 48.0 kHz
Frame rate : 31.250 FPS (1536 SPF)
Compression mode : Lossy
Stream size : 223 MiB (14%)
Title : Original | ENG
Language : English
Service kind : Complete Main
Default : No
Forced : No
Text #1
ID : 4
Format : UTF-8
Codec ID : S_TEXT/UTF8
Codec ID/Info : UTF-8 Plain Text
Duration : 1 h 16 min
Bit rate : 65 b/s
Count of elements : 758
Stream size : 36.6 KiB (0%)
Title : [Full]
Language : Russian
Default : No
Forced : No
Text #2
ID : 5
Format : UTF-8
Codec ID : S_TEXT/UTF8
Codec ID/Info : UTF-8 Plain Text
Duration : 1 h 19 min
Bit rate : 40 b/s
Count of elements : 961
Stream size : 23.3 KiB (0%)
Title : [Full]
Language : English
Default : No
Forced : No
Релиз от:
Автор релиза:
pb.wtf



Скачать Женщины в чёрном через торрент http://i120.fastpic.org/big/2022/0605/17/2ac5bb9ccc31e816da0f99b9f64a4e17.jpg Скачать, смотреть онлайн Женщины в чёрном бесплантно в хорошем качестве Описание: На собственной свадьбе Санни узнает, что семья её жениха происходит из проклятого рода, женщины которого видят прошлое и ... 10 10 1
Торрент: Зарегистрирован [2022-06-06 05:46] · скачан: 29 раз
Статус: √ проверено
Размер: 1.6 GB
Как cкачать? Как скачать Женщины в чёрном через торрент | UTorrent

28-11-2019 20:33  

Отключить вcю реклaмy на сайте

    Дорогой пользователь! Огромная просьба, поблагодарите релизера, оцените раздачу и оставьте свои комментарий, если Вы скачали Женщины в чёрном через торрент бесплатно!
    Комментировать посты могут только пользователи прошедшие не сложную регистрацию
    Показать сообщения:    

    Женщины в чёрном через торрент
    Скачать бесплатно Женщины в чёрном
    Женщины в чёрном скачать торрент
    Женщины в чёрном смотреть онлайн
    Cкачать фильм Женщины в чёрном бесплатно
    Женщины в чёрном скачать торрент в хорошем качестве
    Женщины в чёрном смотреть онлайн бесплатно в хорошем качестве


    Вы не можете начинать темы
    Вы не можете отвечать на сообщения
    Вы не можете редактировать свои сообщения
    Вы не можете удалять свои сообщения
    Вы не можете голосовать в опросах
    Вы не можете прикреплять файлы к сообщениям
    Вы можете скачивать файлы