Всегда рабочее зеркало без VPN и Proxy просто перед .vidak.icu напиши любое слово или цифру, Пример http://jol8.vidak.icu

MVO

MVO

1 сезон

1

1 сезон

iTunes

1 сезон

13

1 сезон

Deluxe

pack

Рекомендуем

Repack

30

ВАЖНО

RePack

MK11

RePack

jed

RePack

fifa19

RePack

RDR2

RePack

NEED FOR SPEED™ PAYBACK

Кинопоиск HD

6 сезон

 Острые козырьки 6 сезон

Все сериалы

все сериалы на PB.wtf

RePack

FAR CRY 5
  
Magnet ссылка

Родители строгого режима (Никита Владимиров) [2022, Комедия, WEB-DLRip-AVC] RUS [KION] от ExKinoRay pb.wtf

Родители строгого режима через торрент pb.wtf

Раздают: 3 [ 0 KB/s ]
Размер: 1.3 GB | Добавлен: 2 мес. 5 д. назад | Торрент скачан:212 раз
Смотреть онлайн Родители строгого режима | Скачать    Ребята, помогите собрать деньги на оплату серверов!!!

06-06-2022 06:22 Родители строгого режима Скачать торрент  


Родители строгого режима
Информация о фильме:
Название: Родители строгого режима
Год выхода: 2022
Жанр: Комедия
Режиссер: Никита Владимиров
В ролях: Алиса Фрейндлих, Александр Адабашьян, Евгений Ткачук, Ольга Медынич, Игорь Хрипунов, Владимир Сычев, Валерия Федорович, Елена Руфанова, Анна Алексахина, Александр Безруков, Татьяна Полякова

Описание: Каждый родитель хочет гордиться своим ребёнком. Но Литвины устали стыдиться поступков своего Бореньки. Дело в том, что Боря теперь - Борис Валентинович и он — мэр их города, а в народе у него - устойчивая репутация «хапуги». Узнав, что проворовавшийся мэр собрался баллотироваться на второй срок, мама и папа решают не дожидаться, когда за сыном «придут», а «посадить» его самим - в его любимую детскую комнатку… за толстую решётку. Так, уединённый лесной домик на окраине городка, превратится в режимный объект, где родители попытаются вместе проанализировать и исправить педагогические ошибки, чтобы наставить мэра на истинный путь.



Страна: Россия
Студия: Кинокомпания «САГа», Метрафильмс
Продолжительность: 01:19:10
Перевод: Оригинал - KION



Информация о файле:
Кодек: AVC
Формат: MKV
Качество: WEB-DLRip-AVC
Видео: MPEG-4 AVC, 1024x576, 24.000 fps, 1895 kb/s
Аудио RU: AC3, 6 ch, 48 kHz, 448 kbps



x264 info: frame I:893 Avg QP:14.33 size: 83217
x264 info: frame P:27996 Avg QP:17.55 size: 22220
x264 info: frame B:85129 Avg QP:18.37 size: 5022
General
Unique ID : 34168328357511367950342685297925460623 (0x19B494A702073D44551529E5B810928F)
Complete name : D:uTorrentРипы wolf1245Roditeli.strogogo.rezhima.2022.RUS.KION.x264.WEB-DLRip-AVC.[wolf1245.ExKinoRay].mkv
Format : Matroska
Format version : Version 4
File size : 1.30 GiB
Duration : 1 h 19 min
Overall bit rate : 2 342 kb/s
Movie name : Roditeli.strogogo.rezhima.2022.RUS.KION.x264.WEB-DLRip-AVC.[wolf1245.ExKinoRay]
Encoded date : UTC 2022-06-05 10:49:15
Writing application : mkvmerge v68.0.0 ('The Curtain') 64-bit
Writing library : libebml v1.4.2 + libmatroska v1.6.4
Video
ID : 1
Format : AVC
Format/Info : Advanced Video Codec
Format profile : [email protected]
Format settings : CABAC / 10 Ref Frames
Format settings, CABAC : Yes
Format settings, Reference frames : 10 frames
Codec ID : V_MPEG4/ISO/AVC
Duration : 1 h 19 min
Bit rate : 1 895 kb/s
Width : 1 024 pixels
Height : 576 pixels
Display aspect ratio : 16:9
Frame rate mode : Constant
Frame rate : 24.000 FPS
Color space : YUV
Chroma subsampling : 4:2:0
Bit depth : 8 bits
Scan type : Progressive
Bits/(Pixel*Frame) : 0.134
Stream size : 1.05 GiB (81%)
Title : -=[wolf1245.ExKinoRay]=-
Writing library : x264 core 163 r3060 5db6aa6
Encoding settings : cabac=1 / ref=10 / deblock=1:-2:-1 / analyse=0x3:0x133 / me=umh / subme=11 / psy=1 / psy_rd=0.98:0.10 / mixed_ref=1 / me_range=32 / chroma_me=1 / trellis=2 / 8x8dct=1 / cqm=0 / deadzone=22,11 / fast_pskip=1 / chroma_qp_offset=-3 / threads=10 / lookahead_threads=2 / sliced_threads=0 / nr=0 / decimate=0 / interlaced=0 / bluray_compat=0 / constrained_intra=0 / bframes=10 / b_pyramid=2 / b_adapt=2 / b_bias=0 / direct=3 / weightb=1 / open_gop=0 / weightp=2 / keyint=240 / keyint_min=24 / scenecut=40 / intra_refresh=0 / rc_lookahead=150 / rc=2pass / mbtree=0 / bitrate=1895 / ratetol=1.0 / qcomp=0.60 / qpmin=0 / qpmax=69 / qpstep=4 / cplxblur=20.0 / qblur=0.5 / vbv_maxrate=50000 / vbv_bufsize=62500 / nal_hrd=none / filler=0 / ip_ratio=1.40 / pb_ratio=1.30 / aq=1:1.10
Default : Yes
Forced : No
Audio
ID : 2
Format : AC-3
Format/Info : Audio Coding 3
Commercial name : Dolby Digital
Codec ID : A_AC3
Duration : 1 h 19 min
Bit rate mode : Constant
Bit rate : 448 kb/s
Channel(s) : 6 channels
Channel layout : L R C LFE Ls Rs
Sampling rate : 48.0 kHz
Frame rate : 31.250 FPS (1536 SPF)
Compression mode : Lossy
Stream size : 254 MiB (19%)
Title : RUS | Original / | KION
Language : Russian
Service kind : Complete Main
Default : Yes
Forced : No
Релиз от:
Автор релиза:
pb.wtf



Скачать Родители строгого режима через торрент http://i117.fastpic.org/big/2022/0515/03/e117ccea544a55bb76a944f7e5275c03.png Скачать, смотреть онлайн Родители строгого режима бесплантно в хорошем качестве Описание: Каждый родитель хочет гордиться своим ребёнком. Но Литвины устали стыдиться поступков своего Бореньки. Дело в том, что Боря ... 10 10 6
Торрент: Зарегистрирован [2022-06-06 06:22] · скачан: 212 раз
Статус: √ проверено
Размер: 1.3 GB
Как cкачать? Как скачать Родители строгого режима через торрент | UTorrent

28-11-2019 20:33  

Отключить вcю реклaмy на сайте

06-06-2022 14:06 Родители строгого режима Скачать торрент  

Нужно Ткачука заценить.pb.wtf



12-06-2022 04:50 Родители строгого режима Скачать торрент  

В целом понравился, но хотелось бы в конце увидеть решение создателей, это же не триллер.pb.wtf



    Дорогой пользователь! Огромная просьба, поблагодарите релизера, оцените раздачу и оставьте свои комментарий, если Вы скачали Родители строгого режима через торрент бесплатно!
    Комментировать посты могут только пользователи прошедшие не сложную регистрацию
    Показать сообщения:    

    Родители строгого режима через торрент
    Скачать бесплатно Родители строгого режима
    Родители строгого режима скачать торрент
    Родители строгого режима смотреть онлайн
    Cкачать фильм Родители строгого режима бесплатно
    Родители строгого режима скачать торрент в хорошем качестве
    Родители строгого режима смотреть онлайн бесплатно в хорошем качестве


    Вы не можете начинать темы
    Вы не можете отвечать на сообщения
    Вы не можете редактировать свои сообщения
    Вы не можете удалять свои сообщения
    Вы не можете голосовать в опросах
    Вы не можете прикреплять файлы к сообщениям
    Вы можете скачивать файлы