Всегда рабочее зеркало без VPN и Proxy просто перед .vidak.icu напиши любое слово или цифру, Пример http://pjd6.vidak.icu

MVO

MVO

1 сезон

1

1 сезон

iTunes

1 сезон

13

1 сезон

Deluxe

pack

Рекомендуем

Repack

30

ВАЖНО

RePack

MK11

RePack

jed

RePack

fifa19

RePack

RDR2

RePack

NEED FOR SPEED™ PAYBACK

Кинопоиск HD

6 сезон

 Острые козырьки 6 сезон

Все сериалы

все сериалы на PB.wtf

RePack

FAR CRY 5
  
Magnet ссылка

Отчаянные дольщики (Илья Фарфель) [2021, Комедия, криминал, WEB-DLRip-AVC] RUS от ExKinoRay pb.wtf

Отчаянные дольщики через торрент pb.wtf

Раздают: 3 [ 0 KB/s ]
Размер: 1.39 GB | Добавлен: 2 мес. 5 д. назад | Торрент скачан:193 раза
Смотреть онлайн Отчаянные дольщики | Скачать    Ребята, помогите собрать деньги на оплату серверов!!!

06-06-2022 07:01 Отчаянные дольщики Скачать торрент  


Отчаянные дольщики
Информация о фильме:
Название: Отчаянные дольщики
Год выхода: 2021
Жанр: Комедия, криминал
Режиссер: Илья Фарфель
В ролях: Михаил Трухин, Максим Лагашкин, Екатерина Стулова, Никита Кологривый, Ольга Веникова, Александра Флоринская, Григорий Сиятвинда, Екатерина Шмакова, Кирилл Гребенщиков, Жаннат Керимбаев

Описание: Кто не мечтает о своей квартире, да ещё в центре города? Две заурядные семейные пары — не исключение. Однако на пути к их мечте встаёт ушлый застройщик, который взамен кровно нажитых денег даёт только котлован для фундамента. Простые россияне не хотят мириться с несправедливостью и совершенно случайно берут главу строительной компании в плен.



Страна: Россия
Студия: Yellow, Black & White
Продолжительность: 01:27:28
Перевод: Оригинал



Информация о файле:
Кодек: AVC
Формат: MKV
Качество: WEB-DLRip-AVC
Видео: MPEG-4 AVC, 1024x426, 24,000 fps, 1895 kb/s
Аудио RU: AC3, 6 ch, 48 kHz, 384 kbps



x264 info: frame I:1054 Avg QP:14.70 size: 79822
x264 info: frame P:28756 Avg QP:18.01 size: 21305
x264 info: frame B:96162 Avg QP:19.68 size: 5668
General
Unique ID : 170263901518380798842744566171641638693 (0x8017A277A6EA9BA6595B01FF2E20EF25)
Complete name : D:uTorrentРипы wolf1245Otchayanniye.dolshiki.2021.RUS.x264.WEB-DLRip-AVC.[wolf1245.ExKinoRay].mkv
Format : Matroska
Format version : Version 4
File size : 1.39 GiB
Duration : 1 h 27 min
Overall bit rate : 2 278 kb/s
Movie name : Otchayanniye.dolshiki.2021.RUS.x264.WEB-DLRip-AVC.[wolf1245.ExKinoRay]
Encoded date : UTC 2022-06-05 06:20:52
Writing application : mkvmerge v68.0.0 ('The Curtain') 64-bit
Writing library : libebml v1.4.2 + libmatroska v1.6.4
Video
ID : 1
Format : AVC
Format/Info : Advanced Video Codec
Format profile : [email protected]
Format settings : CABAC / 10 Ref Frames
Format settings, CABAC : Yes
Format settings, Reference frames : 10 frames
Codec ID : V_MPEG4/ISO/AVC
Duration : 1 h 27 min
Bit rate : 1 895 kb/s
Width : 1 024 pixels
Height : 426 pixels
Display aspect ratio : 2.40:1
Frame rate mode : Constant
Frame rate : 24.000 FPS
Color space : YUV
Chroma subsampling : 4:2:0
Bit depth : 8 bits
Scan type : Progressive
Bits/(Pixel*Frame) : 0.181
Stream size : 1.16 GiB (83%)
Title : -=[wolf1245.ExKinoRay]=-
Writing library : x264 core 163 r3060 5db6aa6
Encoding settings : cabac=1 / ref=10 / deblock=1:-2:-1 / analyse=0x3:0x133 / me=umh / subme=11 / psy=1 / psy_rd=0.98:0.10 / mixed_ref=1 / me_range=32 / chroma_me=1 / trellis=2 / 8x8dct=1 / cqm=0 / deadzone=22,11 / fast_pskip=1 / chroma_qp_offset=-3 / threads=10 / lookahead_threads=2 / sliced_threads=0 / nr=0 / decimate=0 / interlaced=0 / bluray_compat=0 / constrained_intra=0 / bframes=10 / b_pyramid=2 / b_adapt=2 / b_bias=0 / direct=3 / weightb=1 / open_gop=0 / weightp=2 / keyint=240 / keyint_min=24 / scenecut=40 / intra_refresh=0 / rc_lookahead=150 / rc=2pass / mbtree=0 / bitrate=1895 / ratetol=1.0 / qcomp=0.60 / qpmin=0 / qpmax=69 / qpstep=4 / cplxblur=20.0 / qblur=0.5 / vbv_maxrate=50000 / vbv_bufsize=62500 / nal_hrd=none / filler=0 / ip_ratio=1.40 / pb_ratio=1.30 / aq=1:1.10
Language : Russian
Default : Yes
Forced : No
Color range : Limited
Color primaries : BT.709
Matrix coefficients : BT.709
Audio
ID : 2
Format : AC-3
Format/Info : Audio Coding 3
Commercial name : Dolby Digital
Codec ID : A_AC3
Duration : 1 h 27 min
Bit rate mode : Constant
Bit rate : 384 kb/s
Channel(s) : 6 channels
Channel layout : L R C LFE Ls Rs
Sampling rate : 48.0 kHz
Frame rate : 31.250 FPS (1536 SPF)
Compression mode : Lossy
Stream size : 240 MiB (17%)
Title : RUS | Original
Language : Russian
Service kind : Complete Main
Default : Yes
Forced : No
Релиз от:
Автор релиза:
pb.wtf



Скачать Отчаянные дольщики через торрент http://i3.imageban.ru/out/2022/06/02/f03fa07e6998894e709b44d3b68c98b9.jpg Скачать, смотреть онлайн Отчаянные дольщики бесплантно в хорошем качестве Описание: Кто не мечтает о своей квартире, да ещё в центре города? Две заурядные семейные пары — не исключение. Однако на пути к их мечте ... 10 10 6
Торрент: Зарегистрирован [2022-06-06 07:01] · скачан: 193 раз
Статус: √ проверено
Размер: 1.39 GB
Как cкачать? Как скачать Отчаянные дольщики через торрент | UTorrent

28-11-2019 20:33  

Отключить вcю реклaмy на сайте

    Дорогой пользователь! Огромная просьба, поблагодарите релизера, оцените раздачу и оставьте свои комментарий, если Вы скачали Отчаянные дольщики через торрент бесплатно!
    Комментировать посты могут только пользователи прошедшие не сложную регистрацию
    Показать сообщения:    

    Отчаянные дольщики через торрент
    Скачать бесплатно Отчаянные дольщики
    Отчаянные дольщики скачать торрент
    Отчаянные дольщики смотреть онлайн
    Cкачать фильм Отчаянные дольщики бесплатно
    Отчаянные дольщики скачать торрент в хорошем качестве
    Отчаянные дольщики смотреть онлайн бесплатно в хорошем качестве


    Вы не можете начинать темы
    Вы не можете отвечать на сообщения
    Вы не можете редактировать свои сообщения
    Вы не можете удалять свои сообщения
    Вы не можете голосовать в опросах
    Вы не можете прикреплять файлы к сообщениям
    Вы можете скачивать файлы