Всегда рабочее зеркало без VPN и Proxy просто перед .vidak.icu напиши любое слово или цифру, Пример http://al31.vidak.icu

Лицензия

MVO

1 сезон

1

1 сезон

iTunes

1 сезон

13

1 сезон

Deluxe

pack

Рекомендуем

Repack

30

ВАЖНО

RePack

MK11

RePack

jed

RePack

fifa19

RePack

RDR2

RePack

NEED FOR SPEED™ PAYBACK

Кинопоиск HD

6 сезон

 Острые козырьки 6 сезон

Все сериалы

все сериалы на PB.wtf

RePack

FAR CRY 5
  
Magnet ссылка

Пацаны / The Boys / Сезон: 3 / Серии: 1-8 из 8 (Филип Сгриккиа, Стефан Шварц, Фред Туа) [2022, Фантастика, боевик, комедия, криминал, WEBRip 1080p] MVO [AlexFilm] pb.wtf

Пацаны через торрент pb.wtf

Размер: 54.11 GB | Добавлен: 1 мес. 5 д. назад | Торрент скачан:37 раз
Смотреть онлайн Пацаны | Скачать    Ребята, помогите собрать деньги на оплату серверов!!!

06-06-2022 15:30 Пацаны Скачать торрент  

Пацаны | The Boys
«Never Meet Your Heroes»
Год выпуска: 2022
Страна: США
Выпущено: Amazon Studios, Original Film, Point Grey Pictures, Sony Pictures Television
Жанр: Фантастика, боевик, комедия, криминал
Продолжительность: ~ 01:00:00
Перевод: Профессиональный (многоголосый закадровый) | Alexfilm
Субтитры: Русские (Forced, Full |«Amazon»|, английские (Forced, Full, SDH)

Режиссер: Филип Сгриккиа, Стефан Шварц, Фред Туа

rating

В ролях: Карл Урбан (Karl Urban), Джек Куэйд (Jack Quaid), Энтони Старр (Antony Starr), Эрин Мориарти (Erin Moriarty), Доминик МакЭллигот (Dominique McElligott), Джесси Ашер (Jessie T. Usher), Лас Алонсо (Laz Alonso), Чейс Кроуфорд (Chace Crawford), Томер Капон (Tomer Capon), Карен Фукухара (Karen Fukuhara), Нэйтан Митчелл (Nathan Mitchell), Колби Минифи (Colby Minifie) и др.

Описание: Действие сериала разворачивается в мире, где существуют супергерои. Именно они являются настоящими звездами. Их все знают и обожают. Но за идеальным фасадом скрывается гораздо более мрачный мир наркотиков и секса, а большинство героев — в жизни не самые приятные люди. Для контроля за супергероями ЦРУ создает специальный отряд, неофициально известный как «Пацаны», суровые члены которого всегда готовы поставить зазнавшегося героя на место самым жестоким способом.

Качество: WEBRip 1080p
Формат: MKV

Видео: AVC, 1920x800 (2.40:1), 23.976 fps, ~14 Mbps
Аудио №1: AC3, 48,0 kHz, 6 ch, 384 kbps | AlexFilm
Аудио №2: AC3, 48,0 kHz, 6 ch, 384 kbps | Original
Аудио №3: E-AC3, 48,0 kHz, 6 ch, 640 kbps | Original
скриншот  скриншот  скриншот  скриншот  

Complete name : D:The_Boys_(s03)_AlexFilm_1080pThe.Boys.2022.S03E01.Payback.1080p.AMZN.WEBRip.DDP5.1.x264-NTb_EniaHD.mkv
Format : Matroska
Format version : Version 4
File size : 7.03 GiB
Duration : 1 h 1 min
Overall bit rate : 16.2 Mb/s
Encoded date : UTC 2022-06-22 16:30:09
Writing application : mkvmerge v58.0.0 ('Supper's Ready') 64-bit
Writing library : libebml v1.4.2 + libmatroska v1.6.4

Video
ID : 1
Format : AVC
Format/Info : Advanced Video Codec
Format profile : [email protected]
Format settings : CABAC / 5 Ref Frames
Format settings, CABAC : Yes
Format settings, Reference : 5 frames
Codec ID : V_MPEG4/ISO/AVC
Duration : 1 h 1 min
Bit rate : 14.8 Mb/s
Width : 1 920 pixels
Height : 800 pixels
Display aspect ratio : 2.40:1
Frame rate mode : Constant
Frame rate : 23.976 (24000/1001) FPS
Color space : YUV
Chroma subsampling : 4:2:0
Bit depth : 8 bits
Scan type : Progressive
Bits/(Pixel*Frame) : 0.403
Stream size : 6.42 GiB (91%)
Title : Release by EniaHD
Writing library : x264 core 161 r3027 4121277
Encoding settings : cabac=1 / ref=5 / deblock=1:-3:-3 / analyse=0x3:0x133 / me=umh / subme=10 / psy=1 / psy_rd=1.00:0.15 / mixed_ref=1 / me_range=48 / chroma_me=1 / trellis=2 / 8x8dct=1 / cqm=0 / deadzone=21,11 / fast_pskip=0 / chroma_qp_offset=-3 / threads=24 / lookahead_threads=4 / sliced_threads=0 / nr=0 / decimate=0 / interlaced=0 / bluray_compat=0 / constrained_intra=0 / bframes=8 / b_pyramid=2 / b_adapt=2 / b_bias=0 / direct=3 / weightb=1 / open_gop=0 / weightp=2 / keyint=250 / keyint_min=23 / scenecut=40 / intra_refresh=0 / rc=crf / mbtree=0 / crf=17.0 / qcomp=0.60 / qpmin=0 / qpmax=69 / qpstep=4 / ip_ratio=1.30 / pb_ratio=1.20 / aq=3:0.80
Default : Yes
Forced : No

Audio #1
ID : 2
Format : AC-3
Format/Info : Audio Coding 3
Commercial name : Dolby Digital
Codec ID : A_AC3
Duration : 1 h 1 min
Bit rate mode : Constant
Bit rate : 384 kb/s
Channel(s) : 6 channels
Channel layout : L R C LFE Ls Rs
Sampling rate : 48.0 kHz
Frame rate : 31.250 FPS (1536 SPF)
Compression mode : Lossy
Stream size : 170 MiB (2%)
Title : AlexFilm
Language : Russian
Service kind : Complete Main
Default : Yes
Forced : No

Audio #2
ID : 3
Format : AC-3
Format/Info : Audio Coding 3
Commercial name : Dolby Digital
Codec ID : A_AC3
Duration : 1 h 1 min
Bit rate mode : Constant
Bit rate : 384 kb/s
Channel(s) : 6 channels
Channel layout : L R C LFE Ls Rs
Sampling rate : 48.0 kHz
Frame rate : 31.250 FPS (1536 SPF)
Compression mode : Lossy
Stream size : 170 MiB (2%)
Language : English
Service kind : Complete Main
Default : No
Forced : No

Audio #3
ID : 4
Format : E-AC-3
Format/Info : Enhanced AC-3
Commercial name : Dolby Digital Plus
Codec ID : A_EAC3
Duration : 1 h 1 min
Bit rate mode : Constant
Bit rate : 640 kb/s
Channel(s) : 6 channels
Channel layout : L R C LFE Ls Rs
Sampling rate : 48.0 kHz
Frame rate : 31.250 FPS (1536 SPF)
Compression mode : Lossy
Stream size : 284 MiB (4%)
Language : English
Service kind : Complete Main
Default : No
Forced : No

Text #1
ID : 5
Format : UTF-8
Codec ID : S_TEXT/UTF8
Codec ID/Info : UTF-8 Plain Text
Duration : 50 min 2 s
Bit rate : 3 b/s
Count of elements : 17
Stream size : 1.11 KiB (0%)
Title : Forced
Language : Russian
Default : Yes
Forced : No

Text #2
ID : 6
Format : UTF-8
Codec ID : S_TEXT/UTF8
Codec ID/Info : UTF-8 Plain Text
Duration : 57 min 43 s
Bit rate : 101 b/s
Count of elements : 783
Stream size : 43.1 KiB (0%)
Title : Full |Amazon|
Language : Russian
Default : No
Forced : No

Text #3
ID : 7
Format : UTF-8
Codec ID : S_TEXT/UTF8
Codec ID/Info : UTF-8 Plain Text
Duration : 1 s 418 ms
Bit rate : 56 b/s
Count of elements : 1
Stream size : 10.0 Bytes (0%)
Title : Forced
Language : English
Default : No
Forced : No

Text #4
ID : 8
Format : UTF-8
Codec ID : S_TEXT/UTF8
Codec ID/Info : UTF-8 Plain Text
Duration : 1 h 0 min
Bit rate : 72 b/s
Count of elements : 1066
Stream size : 32.0 KiB (0%)
Title : Full
Language : English
Default : No
Forced : No

Text #5
ID : 9
Format : UTF-8
Codec ID : S_TEXT/UTF8
Codec ID/Info : UTF-8 Plain Text
Duration : 1 h 0 min
Bit rate : 81 b/s
Count of elements : 1221
Stream size : 35.9 KiB (0%)
Title : SDH
Language : English
Default : No
Forced : No

Menu
00:00:00.000 : Amazon Original
00:00:04.000 : Previously On
00:01:38.000 : Scene 3
00:03:50.000 : Scene 4
00:04:12.000 : Scene 5
00:05:02.000 : Scene 6
00:05:40.000 : Scene 7
00:06:35.000 : Scene 8
00:06:56.000 : Scene 9
00:07:12.000 : Scene 10
00:07:38.000 : Scene 11
00:08:49.000 : Scene 12
00:09:38.000 : Scene 13
00:10:28.000 : Scene 14
00:12:45.000 : Scene 15
00:13:51.000 : Scene 16
00:14:40.000 : Title Sequence
00:14:44.000 : Scene 18
00:14:55.000 : Scene 19
00:15:42.000 : Scene 20
00:16:41.000 : Scene 21
00:17:29.000 : Scene 22
00:18:30.000 : Scene 23
00:19:17.000 : Scene 24
00:19:44.000 : Scene 25
00:22:18.000 : Scene 26
00:24:09.000 : Scene 27
00:24:57.000 : Scene 28
00:25:43.000 : Scene 29
00:27:16.000 : Scene 30
00:29:56.000 : Scene 31
00:31:11.000 : Scene 32
00:33:30.000 : Scene 33
00:34:02.000 : Scene 34
00:37:35.000 : Scene 35
00:38:50.000 : Scene 36
00:39:02.000 : Scene 37
00:40:36.000 : Scene 38
00:42:31.000 : Scene 39
00:42:48.000 : Scene 40
00:44:37.000 : Scene 41
00:44:51.000 : Scene 42
00:46:47.000 : Scene 43
00:49:32.000 : Scene 44
00:50:10.000 : Scene 45
00:53:45.000 : Scene 46
00:54:30.000 : Scene 47
00:54:46.000 : Scene 48
00:55:20.000 : Scene 49
00:58:05.000 : End Credits

Когда раздача ведётся путём добавления новых серий, при каждом добавлении создётся новый торрент. Чтобы начать докачку новой серии, пользователям необходимо сделать следующее:
(1) остановить скачивание,
(2) удалить старый торрент у себя из клиента (старые серии удалять не надо),
(3) скачать новый торрент и запустить его у себя в клиенте вместо старого, при этом указать клиенту путь в старую папку, куда и должно происходить скачивание новых серий.
Ваш клиент при этом должен произвести хеширование (проверку) старой папки (если не производит сам - помогите ему сделать это), и будет докачивать только те серии, которых у вас ещё нет. Старые серии при этом не удаляются, а продолжают раздаваться!
Eсли вы уже удалили старые серии, то предотвратить повторную закачку старых серий можно, отжав галочку в соответсвующих местах при запуске нового торрента. По возможности, желательно не удалять старые серии как можно дольше, чтобы релизёр не столько продолжал раздавать старые серии, а смог сконцентрироваться на новых.

pb.wtf



Скачать Пацаны через торрент https://i4.imageban.ru/out/2019/08/02/d2fd7622d1ed3de95e4bd9a03c8eeb95.png Скачать, смотреть онлайн Пацаны бесплантно в хорошем качестве Описание: Действие сериала разворачивается в мире, где существуют супергерои. Именно они являются настоящими звездами. Их все знают и ... 7.5 10 8
Info! Золотая раздача, скачанное не засчитывается.
Торрент: Зарегистрирован [2022-07-09 08:51] · скачан: 37 раз
Статус: √ проверено
Размер: 54.11 GB
Как cкачать? Как скачать Пацаны через торрент | UTorrent

% Раздел Тема Автор DL S | L
Зарубежные сериалы [ 5.77 GB ] Пацаны / The Boys / Сезон: 3 / Серии: 1-8 из 8 [2022 WEBRip] DUB [Red Head Sound] bober100 Скачать
4 | 0
Зарубежные сериалы [ 29.87 GB ] Пацаны / The Boys / Сезон: 3 / Серии: 1-8 из 8 [2022 WEB-DL 1080p] DUB [Red Head Sound] bober100 Скачать
4 | 0
Зарубежные сериалы [ 48.09 GB ] Пацаны / The Boys / Сезон: 3 / Серии: 1-8 из 8 [2022 WEBRip 1080p] 3xMVO bober100 Скачать
1 | 0
Зарубежные сериалы [ 22.85 GB ] Пацаны / The Boys / Сезон 3 / Серии 1-8 из 8 [2022 WEB-DL 1080p] 3x [MVO] + [Ukr MVO] killermax2013 Скачать
3 | 1
Зарубежные сериалы [ 40.34 GB ] Пацаны / The Boys / Сезон: 3 / Серии 1-8 из 8 [2022 WEB-DLRip 1080] 6 x MVO + DUB GEKADOL Скачать
6 | 1
Зарубежные сериалы [ 5.77 GB ] Пацаны / The Boys / Сезон: 3 / Серии: 1-8 из 8 [2022 WEBRip] MVO [HDRezka Studio] bober100 Скачать
5 | 3
Зарубежные сериалы [ 32.96 GB ] Пацаны / The Boys / Сезон: 3 / Серии 1-8 из 8 [2022 WEB-DL 1080p] MVO GEKADOL Скачать
2 | 0

28-11-2019 20:33  

Отключить вcю реклaмy на сайте

    Дорогой пользователь! Огромная просьба, поблагодарите релизера, оцените раздачу и оставьте свои комментарий, если Вы скачали Пацаны через торрент бесплатно!
    Комментировать посты могут только пользователи прошедшие не сложную регистрацию
    Показать сообщения:    

    Пацаны через торрент
    Скачать бесплатно Пацаны
    Пацаны скачать торрент
    Пацаны смотреть онлайн
    Cкачать фильм Пацаны бесплатно
    Пацаны скачать торрент в хорошем качестве
    Пацаны смотреть онлайн бесплатно в хорошем качестве


    Вы не можете начинать темы
    Вы не можете отвечать на сообщения
    Вы не можете редактировать свои сообщения
    Вы не можете удалять свои сообщения
    Вы не можете голосовать в опросах
    Вы не можете прикреплять файлы к сообщениям
    Вы можете скачивать файлы