Всегда рабочее зеркало без VPN и Proxy просто перед .vidak.icu напиши любое слово или цифру, Пример http://sc5n.vidak.icu

Лицензия

MVO

1 сезон

1

1 сезон

iTunes

1 сезон

13

1 сезон

Deluxe

pack

Рекомендуем

Repack

30

ВАЖНО

RePack

MK11

RePack

jed

RePack

fifa19

RePack

RDR2

RePack

NEED FOR SPEED™ PAYBACK

Кинопоиск HD

6 сезон

 Острые козырьки 6 сезон

Все сериалы

все сериалы на PB.wtf

RePack

FAR CRY 5
  
Magnet ссылка

Ип Ман: Мастер кунг-фу / Zong shi ye wen / Ip Man: Kung Fu Master (Ли Лимин) [2019, Боевик, биография, BDRip 1080p] MVO [IVI] pb.wtf

Ип Ман: Мастер кунг-фу через торрент pb.wtf

Размер: 8.13 GB | Добавлен: 2 мес. 6 д. назад | Торрент скачан:25 раз
Смотреть онлайн Ип Ман: Мастер кунг-фу | Скачать    Ребята, помогите собрать деньги на оплату серверов!!!

06-06-2022 16:07 Ип Ман: Мастер кунг-фу Скачать торрент  

Ип Ман: Мастер кунг-фу
Zong shi ye wen
Ip Man: Kung Fu Master

Год выпуска: 2019
Страна: Китай
Жанр: Боевик, биография
Продолжительность: 01:24:12
Перевод: Профессиональный (многоголосый) | IVI
Субтитры: отсутствуют

Режиссер: Ли Лимин

rating

В ролях: Дэннис То, Майкл Вон, Синь Ваньлижо, Юэ Дунфэн

Описание: События китайского биографического кинофильма "Ип Ман: Мастер кунг-фу" основаны на реальных фактах из жизни самого известного в мире специалиста по восточным боевым искусствам. Он родился в Китае в небольшом городе Фохань в конце девятнадцатого века в богатой аристократической семье, но родительского наследства не получил, так как был младшим сыном. Поэтому целеустремленному юноше пришлось самостоятельно прокладывать путь, посвятив свою жизнь пропаганде оригинальных военных навыков в стиле Вин-Чун.

Качество: BDRip 1080p
Формат: MKV

Видео: MPEG-4 AVC, 12.8 Mb/s, 1920x752, 23.976 fps
Аудио#1 Rus: 48 kHz, AC3 Dolby Digital, 3/2 (L, C, R, l, r) + LFE ch, ~384 Kbps
Аудио#2 Chi: 48 kHz, AC3 Dolby Digital, 3/2 (L, C, R, l, r) + LFE ch, ~640 Kbps

Complete name Ip.Man.Master.kungfu.2019.BDRip.1080p.ELEKTRI4KA.UNIONGANG.mkv
Format: Matroska
Format version: Version 4
File size: 8.13 GiB
Duration: 1 h 24 min
Overall bit rate: 13.8 Mb/s
Movie name: Ip.Man.Master.kungfu.2019.BDRip.1080p.ELEKTRI4KA.UNIONGANG.
Encoded date: UTC 2022-06-06 13:32:20
Writing application: mkvmerge v8.3.0 ('Over the Horizon') 32bit
Writing library: libebml v1.3.1 + libmatroska v1.4.2

Video
ID: 1
Format: AVC
Format/Info: Advanced Video Codec
Format profile: [email protected]
Format settings: CABAC / 5 Ref Frames
Format settings, CABAC: Yes
Format settings, Reference frames: 5 frames
Codec ID: V_MPEG4/ISO/AVC
Duration: 1 h 24 min
Bit rate: 12.8 Mb/s
Width: 1 920 pixels
Height: 752 pixels
Display aspect ratio: 2.553
Frame rate mode: Constant
Frame rate: 23.976 (24000/1001) FPS
Color space: YUV
Chroma subsampling: 4:2:0
Bit depth: 8 bits
Scan type: Progressive
Bits/(Pixel*Frame): 0.370
Stream size: 7.53 GiB (93%)
Writing library: x264 core 157 r2958 57baac4
Encoding settings: cabac=1 / ref=5 / deblock=1:-3:-3 / analyse=0x3:0x113 / me=umh / subme=10 / psy=1 / psy_rd=1.00:0.15 / mixed_ref=1 / me_range=32 / chroma_me=1 / trellis=2 / 8x8dct=1 / cqm=0 / deadzone=21, 11 / fast_pskip=0 / chroma_qp_offset=-3 / threads=23 / lookahead_threads=3 / sliced_threads=0 / nr=1 / decimate=0 / interlaced=0 / bluray_compat=0 / constrained_intra=0 / bframes=8 / b_pyramid=2 / b_adapt=2 / b_bias=0 / direct=3 / weightb=1 / open_gop=0 / weightp=2 / keyint=240 / keyint_min=24 / scenecut=40 / intra_refresh=0 / rc=2pass / mbtree=0 / bitrate=12800 / ratetol=1.0 / qcomp=0.60 / qpmin=0 / qpmax=69 / qpstep=4 / cplxblur=20.0 / qblur=0.5 / ip_ratio=1.40 / pb_ratio=1.30 / aq=1:1.00
Default: Yes
Forced: No

Audio #1
ID: 2
Format: AC-3
Format/Info: Audio Coding 3
Commercial name: Dolby Digital
Codec ID: A_AC3
Duration: 1 h 24 min
Bit rate mode: Constant
Bit rate: 384 kb/s
Channel(s): 6 channels
Channel layout: L R C LFE Ls Rs
Sampling rate: 48.0 kHz
Frame rate: 31.250 FPS (1536 SPF)
Compression mode: Lossy
Stream size: 231 MiB (3%)
Title: MVO (IVI)
Language: Russian
Service kind: Complete Main
Default: Yes
Forced: Yes

Audio #2
ID: 3
Format: AC-3
Format/Info: Audio Coding 3
Commercial name: Dolby Digital
Codec ID: A_AC3
Duration: 1 h 24 min
Bit rate mode: Constant
Bit rate: 640 kb/s
Channel(s): 6 channels
Channel layout: L R C LFE Ls Rs
Sampling rate: 48.0 kHz
Frame rate: 31.250 FPS (1536 SPF)
Compression mode: Lossy
Stream size: 385 MiB (5%)
Title: Original
Language: Chinese
Service kind: Complete Main
Default: No
Forced: No

pb.wtf



Скачать Ип Ман: Мастер кунг-фу через торрент https://i120.fastpic.org/big/2022/0606/38/dc5c417b2523721e1b54c2a93a7c8338.jpg Скачать, смотреть онлайн Ип Ман: Мастер кунг-фу бесплантно в хорошем качестве Описание: События китайского биографического кинофильма "Ип Ман: Мастер кунг-фу" основаны на реальных фактах из жизни самого известного в ... 10 10 2
Торрент: Зарегистрирован [2022-06-06 16:07] · скачан: 25 раз
Статус: √ проверено
Размер: 8.13 GB
Как cкачать? Как скачать Ип Ман: Мастер кунг-фу через торрент | UTorrent

% Раздел Тема Автор DL S | L
Фильмы (Blu-ray, BD-Remux, HDDVD) [ 21.56 GB ] Ип Ман: Мастер кунг-фу / Zong shi ye wen / Ip Man: Kung Fu Master [2019 биография BD Remux 1080p] MVO [IVI] bober100 Скачать
1 | 0
Азиатские фильмы [ 1.37 GB ] Ип Ман: Мастер кунг-фу / Zong shi ye wen / Ip Man: Kung Fu Master [2019 биография BDRip] MVO [IVI] bober100 Скачать
2 | 0
Азиатские фильмы [ 4.52 GB ] Ип Ман: Мастер кунг-фу / Zong shi ye wen / Ip Man: Kung Fu Master [2019 биография BDRip 720p] MVO [IVI] bober100 Скачать
1 | 0

28-11-2019 20:33  

Отключить вcю реклaмy на сайте

    Дорогой пользователь! Огромная просьба, поблагодарите релизера, оцените раздачу и оставьте свои комментарий, если Вы скачали Ип Ман: Мастер кунг-фу через торрент бесплатно!
    Комментировать посты могут только пользователи прошедшие не сложную регистрацию
    Показать сообщения:    

    Ип Ман: Мастер кунг-фу через торрент
    Скачать бесплатно Ип Ман: Мастер кунг-фу
    Ип Ман: Мастер кунг-фу скачать торрент
    Ип Ман: Мастер кунг-фу смотреть онлайн
    Cкачать фильм Ип Ман: Мастер кунг-фу бесплатно
    Ип Ман: Мастер кунг-фу скачать торрент в хорошем качестве
    Ип Ман: Мастер кунг-фу смотреть онлайн бесплатно в хорошем качестве


    Вы не можете начинать темы
    Вы не можете отвечать на сообщения
    Вы не можете редактировать свои сообщения
    Вы не можете удалять свои сообщения
    Вы не можете голосовать в опросах
    Вы не можете прикреплять файлы к сообщениям
    Вы можете скачивать файлы