Всегда рабочее зеркало без VPN и Proxy просто перед .vidak.icu напиши любое слово или цифру, Пример http://2wy8.vidak.icu

Лицензия

MVO

1 сезон

1

1 сезон

iTunes

1 сезон

13

1 сезон

Deluxe

pack

Рекомендуем

Repack

30

ВАЖНО

RePack

MK11

RePack

jed

RePack

fifa19

RePack

RDR2

RePack

NEED FOR SPEED™ PAYBACK

Кинопоиск HD

6 сезон

 Острые козырьки 6 сезон

Все сериалы

все сериалы на PB.wtf

RePack

FAR CRY 5
  
Magnet ссылка

Ип Ман: Мастер кунг-фу / Zong shi ye wen / Ip Man: Kung Fu Master (Ли Лимин) [2019, Боевик, биография, BD Remux 1080p] MVO [IVI] pb.wtf

Ип Ман: Мастер кунг-фу через торрент pb.wtf

Размер: 21.56 GB | Добавлен: 2 мес. 12 д. назад | Торрент скачан:12 раз
Смотреть онлайн Ип Ман: Мастер кунг-фу | Скачать    Ребята, помогите собрать деньги на оплату серверов!!!

06-06-2022 16:17 Ип Ман: Мастер кунг-фу Скачать торрент  

Ип Ман: Мастер кунг-фу
Zong shi ye wen
Ip Man: Kung Fu Master

Год выпуска: 2019
Страна: Китай
Жанр: Боевик, биография
Продолжительность: 01:24:12
Перевод: Профессиональный (многоголосый) | IVI
Субтитры: отсутствуют

Режиссер: Ли Лимин

rating

В ролях: Дэннис То, Майкл Вон, Синь Ваньлижо, Юэ Дунфэн

Описание: События китайского биографического кинофильма "Ип Ман: Мастер кунг-фу" основаны на реальных фактах из жизни самого известного в мире специалиста по восточным боевым искусствам. Он родился в Китае в небольшом городе Фохань в конце девятнадцатого века в богатой аристократической семье, но родительского наследства не получил, так как был младшим сыном. Поэтому целеустремленному юноше пришлось самостоятельно прокладывать путь, посвятив свою жизнь пропаганде оригинальных военных навыков в стиле Вин-Чун.

Качество: BD Remux 1080p
Формат: MKV

Видео: MPEG-4 AVC, 32.0 Mb/s, 1920x1080, 23.976 fps
Аудио#1 Rus: AC3, 384 Kb/s (6 ch)
Аудио#2 Chi: DTS-HD MA, 4213 Kb/s (6 ch)

Complete name: Ip.Man.Master.kungfu.2019.BDRemux.1080p.ELEKTRI4KA.UNIONGANG.mkv
Format: Matroska
Format version: Version 4
File size: 21.6 GiB
Duration: 1 h 24 min
Overall bit rate mode: Variable
Overall bit rate: 36.6 Mb/s
Movie name: Ip.Man.Master.kungfu.2019.BDRemux.1080p.ELEKTRI4KA.UNIONGANG.
Encoded date: UTC 2022-06-06 15:47:07
Writing application: mkvmerge v8.3.0 ('Over the Horizon') 32bit
Writing library: libebml v1.3.1 + libmatroska v1.4.2

Video
ID: 1
Format: AVC
Format/Info: Advanced Video Codec
Format profile: [email protected]
Format settings: CABAC / 3 Ref Frames
Format settings, CABAC: Yes
Format settings, Reference frames: 3 frames
Codec ID: V_MPEG4/ISO/AVC
Duration: 1 h 24 min
Bit rate mode: Variable
Bit rate: 32.0 Mb/s
Maximum bit rate: 35.0 Mb/s
Width: 1 920 pixels
Height: 1 080 pixels
Display aspect ratio: 16:9
Frame rate mode: Constant
Frame rate: 23.976 (24000/1001) FPS
Color space: YUV
Chroma subsampling: 4:2:0
Bit depth: 8 bits
Scan type: Progressive
Bits/(Pixel*Frame): 0.645
Stream size: 18.8 GiB (87%)
Default: Yes
Forced: No

Audio #1
ID: 2
Format: AC-3
Format/Info: Audio Coding 3
Commercial name: Dolby Digital
Codec ID: A_AC3
Duration: 1 h 24 min
Bit rate mode: Constant
Bit rate: 384 kb/s
Channel(s): 6 channels
Channel layout: L R C LFE Ls Rs
Sampling rate: 48.0 kHz
Frame rate: 31.250 FPS (1536 SPF)
Compression mode: Lossy
Stream size: 231 MiB (1%)
Title: MVO (IVI)
Language: Russian
Service kind: Complete Main
Default: Yes
Forced: Yes

Audio #2
ID: 3
Format: DTS XLL
Format/Info: Digital Theater Systems
Commercial name: DTS-HD Master Audio
Codec ID: A_DTS
Duration: 1 h 24 min
Bit rate mode: Variable
Bit rate: 4 213 kb/s
Channel(s): 6 channels
Channel layout: C L R Ls Rs LFE
Sampling rate: 48.0 kHz
Frame rate: 93.750 FPS (512 SPF)
Bit depth: 24 bits
Compression mode: Lossless
Stream size: 2.48 GiB (11%)
Title: Original
Language: Chinese
Default: No
Forced: No

pb.wtf



Скачать Ип Ман: Мастер кунг-фу через торрент https://i120.fastpic.org/big/2022/0606/38/dc5c417b2523721e1b54c2a93a7c8338.jpg Скачать, смотреть онлайн Ип Ман: Мастер кунг-фу бесплантно в хорошем качестве Описание: События китайского биографического кинофильма "Ип Ман: Мастер кунг-фу" основаны на реальных фактах из жизни самого известного в ... 7.8 10 4
Торрент: Зарегистрирован [2022-06-06 16:17] · скачан: 12 раз
Статус: √ проверено
Размер: 21.56 GB
Как cкачать? Как скачать Ип Ман: Мастер кунг-фу через торрент | UTorrent

% Раздел Тема Автор DL S | L
Азиатские фильмы [ 1.37 GB ] Ип Ман: Мастер кунг-фу / Zong shi ye wen / Ip Man: Kung Fu Master [2019 биография BDRip] MVO [IVI] bober100 Скачать
2 | 0
Азиатские фильмы [ 4.52 GB ] Ип Ман: Мастер кунг-фу / Zong shi ye wen / Ip Man: Kung Fu Master [2019 биография BDRip 720p] MVO [IVI] bober100 Скачать
1 | 0
Азиатские фильмы [ 8.13 GB ] Ип Ман: Мастер кунг-фу / Zong shi ye wen / Ip Man: Kung Fu Master [2019 биография BDRip 1080p] MVO [IVI] bober100 Скачать
1 | 0

28-11-2019 20:33  

Отключить вcю реклaмy на сайте

    Дорогой пользователь! Огромная просьба, поблагодарите релизера, оцените раздачу и оставьте свои комментарий, если Вы скачали Ип Ман: Мастер кунг-фу через торрент бесплатно!
    Комментировать посты могут только пользователи прошедшие не сложную регистрацию
    Показать сообщения:    

    Ип Ман: Мастер кунг-фу через торрент
    Скачать бесплатно Ип Ман: Мастер кунг-фу
    Ип Ман: Мастер кунг-фу скачать торрент
    Ип Ман: Мастер кунг-фу смотреть онлайн
    Cкачать фильм Ип Ман: Мастер кунг-фу бесплатно
    Ип Ман: Мастер кунг-фу скачать торрент в хорошем качестве
    Ип Ман: Мастер кунг-фу смотреть онлайн бесплатно в хорошем качестве


    Вы не можете начинать темы
    Вы не можете отвечать на сообщения
    Вы не можете редактировать свои сообщения
    Вы не можете удалять свои сообщения
    Вы не можете голосовать в опросах
    Вы не можете прикреплять файлы к сообщениям
    Вы можете скачивать файлы