Всегда рабочее зеркало без VPN и Proxy просто перед .vidak.icu напиши любое слово или цифру, Пример http://jk77.vidak.icu

Лицензия

MVO

1 сезон

1

1 сезон

iTunes

1 сезон

13

1 сезон

Deluxe

pack

Рекомендуем

Repack

30

ВАЖНО

RePack

MK11

RePack

jed

RePack

fifa19

RePack

RDR2

RePack

NEED FOR SPEED™ PAYBACK

Кинопоиск HD

6 сезон

 Острые козырьки 6 сезон

Все сериалы

все сериалы на PB.wtf

RePack

FAR CRY 5
  
Magnet ссылка

Проклятие монахинь (Мики Рис) [2021, ужасы, драма, HDRip-AVC] DUB [Марафон] от ExKinoRay pb.wtf

Проклятие монахинь через торрент pb.wtf

Размер: 1.82 GB | Добавлен: 2 мес. 7 д. назад | Торрент скачан:7 раз
Смотреть онлайн Проклятие монахинь | Скачать    Ребята, помогите собрать деньги на оплату серверов!!!

07-06-2022 11:10 Проклятие монахинь Скачать торрент  


Проклятие монахинь / Agnes
Информация о фильме:
Название: Проклятие монахинь
Оригинальное название: Agnes
Год выхода: 2021
Жанр: ужасы, драма
Режиссер: Мики Рис
В ролях: Молли К. Куинн, Шон Ганн, Хейли МакФарланд, Крис Браунинг, Рэйчел Тру, Джейк Хоровиц, Зэнди Хартиг, Брюс Дэвис, Крис Фрейхофер, Хизер Сисс

Описание: Когда в отдалённом женском монастыре монахиня по имени Агнес демонстрирует признаки одержимости, епархия направляет туда опытного священника и молодого помощника, готовящегося принять сан. Прибыв на место, священнослужители проводят обряд экзорцизма, но захвативший Агнес демон оказывается не так прост.



Страна: США
Студия: Divide / Conquer, Perm Machine, QWGmire
Продолжительность: 01:32:28
Перевод: Дублированный - Марафон



Информация о файле:
Кодек: AVC
Формат: MKV
Качество: HDRip-AVC
Видео: MPEG-4 AVC, 1024x402, 23.976 fps, 1990 kb/s
Аудио RU: AC3, 6 ch, 48 kHz, 384 kbps
Аудио EN: AC3, 6 ch, 48 kHz, 448 kbps
Субтитры: Русские (full), английские



x264 info: frame I:1021 Avg QP:11.53 size: 47727
x264 info: frame P:24994 Avg QP:13.12 size: 22405
x264 info: frame B:106992 Avg QP:14.05 size: 6782
General
Unique ID : 234161032422522035734094172026438874836 (0xB029C64011AF26C2AEE5CE3FA242F6D4)
Complete name : D:\uTorrent\Рипы wolf1245\Agnes.2021.DUB.MARAFON.x264.HDRip-AVC.[wolf1245.ExKinoRay].mkv
Format : Matroska
Format version : Version 4
File size : 1.82 GiB
Duration : 1 h 32 min
Overall bit rate : 2 824 kb/s
Movie name : Agnes.2021.DUB.MARAFON.x264.HDRip-AVC.[wolf1245.ExKinoRay]
Encoded date : UTC 2022-06-07 10:39:04
Writing application : mkvmerge v68.0.0 ('The Curtain') 64-bit
Writing library : libebml v1.4.2 + libmatroska v1.6.4

Video
ID : 1
Format : AVC
Format/Info : Advanced Video Codec
Format profile : [email protected]
Format settings : CABAC / 10 Ref Frames
Format settings, CABAC : Yes
Format settings, Reference frames : 10 frames
Codec ID : V_MPEG4/ISO/AVC
Duration : 1 h 32 min
Bit rate : 1 990 kb/s
Width : 1 024 pixels
Height : 402 pixels
Display aspect ratio : 2.557
Frame rate mode : Constant
Frame rate : 23.976 (24000/1001) FPS
Color space : YUV
Chroma subsampling : 4:2:0
Bit depth : 8 bits
Scan type : Progressive
Bits/(Pixel*Frame) : 0.202
Stream size : 1.28 GiB (70%)
Title : -=[wolf1245.ExKinoRay]=-
Writing library : x264 core 163 r3060 5db6aa6
Encoding settings : cabac=1 / ref=10 / deblock=1:-3:-3 / analyse=0x3:0x133 / me=umh / subme=11 / psy=1 / psy_rd=1.01:0.15 / mixed_ref=1 / me_range=32 / chroma_me=1 / trellis=2 / 8x8dct=1 / cqm=0 / deadzone=22,11 / fast_pskip=1 / chroma_qp_offset=-3 / threads=10 / lookahead_threads=2 / sliced_threads=0 / nr=0 / decimate=0 / interlaced=0 / bluray_compat=0 / constrained_intra=0 / bframes=10 / b_pyramid=2 / b_adapt=2 / b_bias=0 / direct=3 / weightb=1 / open_gop=0 / weightp=2 / keyint=240 / keyint_min=24 / scenecut=40 / intra_refresh=0 / rc_lookahead=150 / rc=2pass / mbtree=0 / bitrate=1990 / ratetol=1.0 / qcomp=0.60 / qpmin=0 / qpmax=69 / qpstep=4 / cplxblur=20.0 / qblur=0.5 / vbv_maxrate=50000 / vbv_bufsize=62500 / nal_hrd=none / filler=0 / ip_ratio=1.40 / pb_ratio=1.30 / aq=1:1.10
Language : English
Default : Yes
Forced : No
Color range : Limited
Color primaries : BT.709
Transfer characteristics : BT.709
Matrix coefficients : BT.709

Audio #1
ID : 2
Format : AC-3
Format/Info : Audio Coding 3
Commercial name : Dolby Digital
Codec ID : A_AC3
Duration : 1 h 32 min
Bit rate mode : Constant
Bit rate : 384 kb/s
Channel(s) : 6 channels
Channel layout : L R C LFE Ls Rs
Sampling rate : 48.0 kHz
Frame rate : 31.250 FPS (1536 SPF)
Compression mode : Lossy
Stream size : 254 MiB (14%)
Title : DUB | Marafon | RUS
Language : Russian
Service kind : Complete Main
Default : Yes
Forced : Yes

Audio #2
ID : 3
Format : AC-3
Format/Info : Audio Coding 3
Commercial name : Dolby Digital
Codec ID : A_AC3
Duration : 1 h 32 min
Bit rate mode : Constant
Bit rate : 448 kb/s
Channel(s) : 6 channels
Channel layout : L R C LFE Ls Rs
Sampling rate : 48.0 kHz
Frame rate : 31.250 FPS (1536 SPF)
Compression mode : Lossy
Stream size : 296 MiB (16%)
Title : Original | ENG
Language : English
Service kind : Complete Main
Default : No
Forced : No

Text #1
ID : 4
Format : UTF-8
Codec ID : S_TEXT/UTF8
Codec ID/Info : UTF-8 Plain Text
Duration : 1 h 28 min
Bit rate : 100 b/s
Count of elements : 1265
Stream size : 65.5 KiB (0%)
Title : Full
Language : Russian
Default : No
Forced : No

Text #2
ID : 5
Format : UTF-8
Codec ID : S_TEXT/UTF8
Codec ID/Info : UTF-8 Plain Text
Duration : 1 h 31 min
Bit rate : 69 b/s
Count of elements : 1467
Stream size : 46.8 KiB (0%)
Language : English
Default : No
Forced : No

Menu
00:00:00.000 : :Chapter 01
00:10:38.638 : :Chapter 02
00:16:33.993 : :Chapter 03
00:22:36.355 : :Chapter 04
00:31:29.888 : :Chapter 05
00:41:51.509 : :Chapter 06
00:48:50.928 : :Chapter 07
00:57:13.430 : :Chapter 08
01:07:29.045 : :Chapter 09
01:15:26.522 : :Chapter 10
01:21:36.892 : :Chapter 11
01:29:25.360 : :Chapter 12
Релиз от:

Автор релиза:
pb.wtf



Скачать Проклятие монахинь через торрент https://i.postimg.cc/DfY8wXxL/b1.png Скачать, смотреть онлайн Проклятие монахинь бесплантно в хорошем качестве Описание: Когда в отдалённом женском монастыре монахиня по имени Агнес демонстрирует признаки одержимости, епархия направляет туда ... 5.5 10 2
Торрент: Зарегистрирован [2022-06-07 11:10] · скачан: 7 раз
Статус: √ проверено
Размер: 1.82 GB
Как cкачать? Как скачать Проклятие монахинь через торрент | UTorrent

28-11-2019 20:33  

Отключить вcю реклaмy на сайте

    Дорогой пользователь! Огромная просьба, поблагодарите релизера, оцените раздачу и оставьте свои комментарий, если Вы скачали Проклятие монахинь через торрент бесплатно!
    Комментировать посты могут только пользователи прошедшие не сложную регистрацию
    Показать сообщения:    

    Проклятие монахинь через торрент
    Скачать бесплатно Проклятие монахинь
    Проклятие монахинь скачать торрент
    Проклятие монахинь смотреть онлайн
    Cкачать фильм Проклятие монахинь бесплатно
    Проклятие монахинь скачать торрент в хорошем качестве
    Проклятие монахинь смотреть онлайн бесплатно в хорошем качестве


    Вы не можете начинать темы
    Вы не можете отвечать на сообщения
    Вы не можете редактировать свои сообщения
    Вы не можете удалять свои сообщения
    Вы не можете голосовать в опросах
    Вы не можете прикреплять файлы к сообщениям
    Вы можете скачивать файлы