Доктор Стрэндж

Лицензия

Добыча

Дубляж

Уэнсдэй

1 сезон

Тор

Дубляж

В эфире

Дубляж

Там, где раки поют

MVO

Властелин колец

1 сезон

Deluxe

pack

Рекомендуем

30

Пиратка

ВАЖНО

ВАЖНО

Ghostwire

Пиратка

jed

RePack

nioh2

RePack

RDR2

RePack

NEED FOR SPEED™ PAYBACK

RePack

скачать торрент

Кинопоиск HD

Острые козырьки 6 сезон

6 сезон

FAR CRY 6

RePack

скачать торрент

Лицензия

скачать торрент

MVO

1

1 сезон

скачать торрент

1 сезон

скачать торрент

Лицензия

  

Удивительное путешествие доктора Дулиттла в 3D / Dolittle in 3D (Стивен Гейган) [2020 г., фэнтези, комедия, приключения, семейный, BDRip 1080p, Дубляж BD CEE] Анаглиф (Дюбуа) от R.G. HD-Films

Удивительное путешествие доктора Дулиттла в 3D через торрент pb.wtf

Размер: 5.87 GB | Добавлен: 5 мес. 26 д. назад | Торрент скачан:3 раза
Смотреть онлайн | Скачать   

07-06-2022 14:03 Удивительное путешествие доктора Дулиттла в 3D Скачать торрент  

Удивительное путешествие доктора Дулиттла в 3D / Dolittle in 3D
Год выпуска: 2020
Страна: США, Китай, Великобритания, Япония
Жанр: фэнтези, комедия, приключения, семейный
Продолжительность: 01:41:23
Перевод: Дубляж BD CEE
Субтитры: Русские (Forced вшитые, full), украинские (Forced), английские

Режиссер: Стивен Гейган

Бюджет: $175 000 000
Премьера в мире: 1 января 2020

rating

В ролях: Роберт Дауни мл., Антонио Бандерас, Майкл Шин, Джим Бродбент, Джесси Бакли, Гарри Коллетт, Эмма Томпсон, Рами Малек, Джон Сина, Кумэйл Нанджиани

Описание: Семь лет назад доктор Дулиттл, прославленный врач-ветеринар, живущий в викторианской Англии, потерял свою жену. Теперь он ведет затворнический образ жизни, скрывшись за высокими стенами своего поместья. Экзотические животные из его коллекции – его единственная компания.
Но когда неизвестная болезнь становится угрозой для жизни молодой королевы, доктору Дулиттлу приходится покинуть свое убежище и отправиться в невероятное путешествие к мифическому острову. В поисках лекарства для королевы он вступит в схватку с беспощадными врагами, познакомится с диковинными существами и будет вынужден проявить недюжинное мужество и смекалку.


Доп. информация: Формат 3D: Анаглиф (Дюбуа)



Качество: BDRip 1080p
Формат: MKV
Видео кодек: H.264
Аудио кодек: AC3
Видео: 1920 x 1080 (16:9), 6360 kbps, 23,976 fps, 0.128 bpp
Аудио#1: Русский / AC3 / 48 KHz / 5.1 ch / 640 Kbps (Дубляж - BD CEE)
Аудио#2: Украинский / AC3 / 48 KHz / 5.1 ch / 640 Kbps (Дубляж) (спасибо Hurtom!)
Аудио#3: English / AC3 / 48 KHz / 5.1 ch / 640 Kbps (Original - BD 3D Aus)
Релиз от: Автор рипа: slaventi-69
x264 [info]: profile High, level 4.1
x264 [info]: frame I:1505 Avg QP:17.28 size:169281
x264 [info]: frame P:41299 Avg QP:18.43 size: 59532
x264 [info]: frame B:103034 Avg QP:20.45 size: 20595
x264 [info]: consecutive B-frames: 4.1% 4.8% 21.7% 34.1% 35.3%

Общее
Уникальный идентификатор : 150440625910316592935483314453895794375 (0x712DCF8566EC90E6215B8AF43F814EC7)
Полное имя : G:\60 FPS\Dolittle.(2020).in.3D.(Anaglyph_Dubois).mkv
Формат : Matroska
Версия формата : Version 4
Размер файла : 5,87 Гбайт
Продолжительность : 1 ч. 41 м.
Общий поток : 8283 Кбит/сек
Название фильма : Удивительное путешествие доктора Дулиттла / Dolittle (2020) in 3D (Anaglyph_Dubois)
Дата кодирования : UTC 2022-06-07 13:03:50
Программа кодирования : mkvmerge v25.0.0 ('Prog Noir') 64-bit
Библиотека кодирования : libebml v1.3.6 + libmatroska v1.4.9

Видео
Идентификатор : 1
Формат : AVC
Формат/Информация : Advanced Video Codec
Профиль формата : [email protected]
Настройки формата : CABAC / 4 Ref Frames
Параметр CABAC формата : Да
Параметр RefFrames формата : 4 кадра
Идентификатор кодека : V_MPEG4/ISO/AVC
Продолжительность : 1 ч. 41 м.
Битрейт : 6360 Кбит/сек
Ширина : 1920 пикселей
Высота : 1080 пикселей
Соотношение сторон : 16:9
Режим частоты кадров : Постоянный
Частота кадров : 23,976 кадра/сек
Цветовое пространство : YUV
Субдискретизация насыщенности : 4:2:0
Битовая глубина : 8 бит
Тип развёртки : Прогрессивная
Бит/(Пиксели*Кадры) : 0.128
Размер потока : 4,50 Гбайт (77%)
Заголовок : slaventi-69 ( R.G. HD-Films ) 3Д (Anaglyph_Dubois
Библиотека кодирования : x264 core 130 r2273 b3065e6
Настройки программы : cabac=1 / ref=4 / deblock=1:-2:-2 / analyse=0x3:0x133 / me=umh / subme=9 / psy=1 / psy_rd=1.00:0.00 / mixed_ref=1 / me_range=32 / chroma_me=1 / trellis=2 / 8x8dct=1 / cqm=0 / deadzone=21,11 / fast_pskip=0 / chroma_qp_offset=-2 / threads=8 / lookahead_threads=4 / sliced_threads=0 / nr=0 / decimate=1 / interlaced=0 / bluray_compat=0 / constrained_intra=0 / bframes=4 / b_pyramid=2 / b_adapt=2 / b_bias=0 / direct=1 / weightb=1 / open_gop=0 / weightp=2 / keyint=600 / keyint_min=23 / scenecut=40 / intra_refresh=0 / rc=crf / mbtree=0 / crf=21.0 / qcomp=0.60 / qpmin=0 / qpmax=69 / qpstep=4 / ip_ratio=1.40 / pb_ratio=1.30 / aq=1:1.00
Язык : English
Default : Да
Forced : Нет

Аудио #1
Идентификатор : 2
Формат : AC-3
Формат/Информация : Audio Coding 3
Коммерческое название : Dolby Digital
Идентификатор кодека : A_AC3
Продолжительность : 1 ч. 41 м.
Вид битрейта : Постоянный
Битрейт : 640 Кбит/сек
Каналы : 6 каналов
Channel layout : L R C LFE Ls Rs
Частота : 48,0 КГц
Частота кадров : 31,250 кадров/сек (1536 SPF)
Битовая глубина : 16 бит
Метод сжатия : С потерями
Размер потока : 464 Мбайт (8%)
Заголовок : Дубляж (BD CEE)
Язык : Russian
ServiceKind/String : Complete Main
Default : Да
Forced : Нет

Аудио #2
Идентификатор : 3
Формат : AC-3
Формат/Информация : Audio Coding 3
Коммерческое название : Dolby Digital
Идентификатор кодека : A_AC3
Продолжительность : 1 ч. 41 м.
Вид битрейта : Постоянный
Битрейт : 640 Кбит/сек
Каналы : 6 каналов
Channel layout : L R C LFE Ls Rs
Частота : 48,0 КГц
Частота кадров : 31,250 кадров/сек (1536 SPF)
Битовая глубина : 16 бит
Метод сжатия : С потерями
Размер потока : 464 Мбайт (8%)
Заголовок : Дубляж
Язык : Ukrainian
ServiceKind/String : Complete Main
Default : Нет
Forced : Нет

Аудио #3
Идентификатор : 4
Формат : AC-3
Формат/Информация : Audio Coding 3
Коммерческое название : Dolby Digital
Идентификатор кодека : A_AC3
Продолжительность : 1 ч. 41 м.
Вид битрейта : Постоянный
Битрейт : 640 Кбит/сек
Каналы : 6 каналов
Channel layout : L R C LFE Ls Rs
Частота : 48,0 КГц
Частота кадров : 31,250 кадров/сек (1536 SPF)
Битовая глубина : 16 бит
Метод сжатия : С потерями
Размер потока : 464 Мбайт (8%)
Заголовок : Original (BD 3D Aus)
Язык : English
ServiceKind/String : Complete Main
Default : Нет
Forced : Нет

Текст #1
Идентификатор : 5
Формат : UTF-8
Идентификатор кодека : S_TEXT/UTF8
Идентификатор кодека/Информация : UTF-8 Plain Text
Продолжительность : 1 ч. 32 м.
Битрейт : 97 бит/сек
ElementCount : 1393
Размер потока : 66,0 Кбайт (0%)
Заголовок : Полные
Язык : Russian
Default : Нет
Forced : Нет

Текст #2
Идентификатор : 6
Формат : UTF-8
Идентификатор кодека : S_TEXT/UTF8
Идентификатор кодека/Информация : UTF-8 Plain Text
Продолжительность : 1 ч. 26 м.
Битрейт : 1 бит/сек
ElementCount : 20
Размер потока : 1000 байт (0%)
Заголовок : Форсированные (Ash61)
Язык : Ukrainian
Default : Нет
Forced : Нет

Текст #3
Идентификатор : 7
Формат : UTF-8
Идентификатор кодека : S_TEXT/UTF8
Идентификатор кодека/Информация : UTF-8 Plain Text
Продолжительность : 1 ч. 32 м.
Битрейт : 78 бит/сек
ElementCount : 1876
Размер потока : 52,9 Кбайт (0%)
Заголовок : SDH (BD 3D Aus)
Язык : English
Default : Нет
Forced : Нет

Текст #4
Идентификатор : 8
Формат : UTF-8
Идентификатор кодека : S_TEXT/UTF8
Идентификатор кодека/Информация : UTF-8 Plain Text
Продолжительность : 1 ч. 41 м.
Битрейт : 73 бит/сек
ElementCount : 2060
Размер потока : 54,8 Кбайт (0%)
Заголовок : SDH
Язык : English
Default : Нет
Forced : Нет

Меню
00:00:00.000 : :1
00:06:18.712 : :2
00:11:56.132 : :3
00:18:36.657 : :4
00:22:00.861 : :5
00:29:29.559 : :6
00:35:57.489 : :7
00:39:07.804 : :8
00:45:47.078 : :9
00:48:28.239 : :10
00:54:54.791 : :11
01:01:48.705 : :12
01:04:54.474 : :13
01:09:45.056 : :14
01:14:56.951 : :15
01:18:39.465 : :16
01:23:37.137 : :17
01:30:00.937 : :18

Просьба к переливающим на другие сайты, в оформлении указывайте пожалуйста авторство группы R.G. HD-Films



Скачать Удивительное путешествие доктора Дулиттла в 3D через торрент https://images2.imgbox.com/34/a0/2JWQGxfy_o.png Скачать, смотреть онлайн Удивительное путешествие доктора Дулиттла в 3D бесплантно в хорошем качестве Описание: Семь лет назад доктор Дулиттл, прославленный врач-ветеринар, живущий в викторианской Англии, потерял свою жену. Теперь он ведет ... 5 10 1
Торрент: Зарегистрирован [2022-06-07 14:03] · скачан: 3 раз
Статус: √ проверено
Размер: 5.87 GB
Как cкачать? Как скачать Удивительное путешествие доктора Дулиттла в 3D через торрент | UTorrent

% Раздел Тема Автор DL S | L
3D Фильмы [ 19.84 GB ] Удивительное путешествие доктора Дулиттла в 3Д / Dolittle 3D | я | 1080p serega768 Скачать
1 | 0

28-11-2019 20:33  


Отключить вcю реклaмy на сайте, в т.ч. и в плеере онлайн просмотра!

    Дорогой пользователь! Огромная просьба, поблагодарите релизера, оцените раздачу и оставьте свои комментарий, если Вы скачали Удивительное путешествие доктора Дулиттла в 3D через торрент бесплатно!!
    Комментировать посты могут только пользователи прошедшие не сложную регистрацию
    Показать сообщения:    


    Удивительное путешествие доктора Дулиттла в 3D через торрент
    Скачать бесплатно Удивительное путешествие доктора Дулиттла в 3D
    Удивительное путешествие доктора Дулиттла в 3D скачать торрент
    Удивительное путешествие доктора Дулиттла в 3D смотреть онлайн
    Cкачать фильм Удивительное путешествие доктора Дулиттла в 3D бесплатно
    Удивительное путешествие доктора Дулиттла в 3D скачать торрент в хорошем качестве
    Удивительное путешествие доктора Дулиттла в 3D смотреть онлайн бесплатно в хорошем качестве
    Вы не можете начинать темы
    Вы не можете отвечать на сообщения
    Вы не можете редактировать свои сообщения
    Вы не можете удалять свои сообщения
    Вы не можете голосовать в опросах
    Вы не можете прикреплять файлы к сообщениям
    Вы можете скачивать файлы
    Удивительное путешествие доктора Дулиттла в 3D / Dolittle in 3D [2020 г., фэнтези, комедия, приключения, семейный, BDRip 1080p, Дубляж BD CEE] Анаглиф от R.G. HD-Films смотреть онлайн, скачать торрент picoco.icu