Всегда рабочее зеркало без VPN и Proxy просто перед .vidak.icu напиши любое слово или цифру, Пример http://55f6.vidak.icu

Лицензия

MVO

1 сезон

1

1 сезон

iTunes

1 сезон

13

1 сезон

Deluxe

pack

Рекомендуем

Repack

30

ВАЖНО

RePack

MK11

RePack

jed

RePack

fifa19

RePack

RDR2

RePack

NEED FOR SPEED™ PAYBACK

Кинопоиск HD

6 сезон

 Острые козырьки 6 сезон

Все сериалы

все сериалы на PB.wtf

RePack

FAR CRY 5
  
Magnet ссылка

Всё везде и сразу / Everything Everywhere All at Once (Дэн Кван, Дэниэл Шайнерт) [2022, Фантастика, комедия, боевик, приключения, фэнтези, BDRip 720p] DUB [СиПиАй Филмз / CPI Films] +MVO [Jaskier] pb.wtf

Всё везде и сразу через торрент pb.wtf

Раздают: 4 [ 2 KB/s ]
Размер: 7.51 GB | Добавлен: 1 мес. 25 д. назад | Торрент скачан:185 раз
Смотреть онлайн Всё везде и сразу | Скачать    Ребята, помогите собрать деньги на оплату серверов!!!

08-06-2022 02:58 Всё везде и сразу Скачать торрент  

Всё везде и сразу
Everything Everywhere All at Once

Год выпуска: 2022
Страна: США
Выпущено: Hotdog Hands, Ley Line Entertainment, Russo Brothers, Year of The Rat
Жанр: Фантастика, комедия, боевик, приключения, фэнтези
Продолжительность: 02:19:19
Перевод(ы):
#1: Дублированный | СиПиАй Филмз / CPI Films
#2: Профессиональный (многоголосый закадровый) | Jaskier
Субтитры: Русские (Forced, 2 x full), английские

Режиссер: Дэн Кван, Дэниэл Шайнерт

rating

В ролях: Мишель Йео, Джейми Ли Кертис, Стефани Хсю, Ке Хюи Куан, Джеймс Хонг, Одри Василевски, Энтони Молинари, Дженни Слейт, Гарри Шам-мл., Энди Ле

Описание: Представьте, что существуют альтернативные варианты нашей реальности, где вы — совершенно другой человек. В этом лично убеждается Эвелин (Мишель И?ео), получив доступ к воспоминаниям, эмоциям и невероятным способностям других версии? себя. Теперь Эвелин может прожить тысячи жизней и быть кем угодно — известной актрисой, мастером боевых искусств, оперной дивой и даже небесным божеством. Но всем мультивселенным угрожает таинственная сущность, с которой Эвелин предстоит сразиться. Как знать, возможно, заодно она разберётся и с самым страшным злом — своими налогами.

Качество: BDRip 720p
Формат: MKV

Видео: MPEG-4 AVC, 1280x692, 5733 Kbit/s, 23.976 fps
Аудио #01: 48 kHz, AC3, 5.1, 448 Kbps | СиПиАй Филмз / CPI Films | RUS |
Аудио #02: 48 kHz, E-AC3, 5.1, 448 Kbps | СиПиАй Филмз / CPI Films | RUS |
Аудио #03: 48 kHz, AC3, 5.1, 448 Kbps | Профессиональный многоголосый | Jaskier | RUS |
Аудио #04: 48 kHz, AC3, 5.1, 640 Kbps | Оригинал | ENG |
скриншот  скриншот  скриншот  скриншот  скриншот  скриншот  

General
Unique ID : 58541597444244658750491251811897925952 (0x2C0AB398D8E30E647CB12CFF41A96140)
Complete name : D:Video1Everything.Everywhere.All.at.Once.2022.BDRip.720p.seleZen.mkv
Format : Matroska
Format version : Version 4
File size : 7.51 GiB
Duration : 2 h 19 min
Overall bit rate : 7 721 kb/s
Movie name : Everything Everywhere All At Once 2022 from seleZen
Encoded date : UTC 2022-06-19 03:21:19
Writing application : mkvmerge v59.0.0 ('Shining Star') 64-bit
Writing library : libebml v1.4.2 + libmatroska v1.6.4

Video
ID : 1
Format : AVC
Format/Info : Advanced Video Codec
Format profile : [email protected]
Format settings : CABAC / 9 Ref Frames
Format settings, CABAC : Yes
Format settings, Reference : 9 frames
Codec ID : V_MPEG4/ISO/AVC
Duration : 2 h 19 min
Bit rate : 5 733 kb/s
Width : 1 280 pixels
Height : 692 pixels
Display aspect ratio : 1.85:1
Frame rate mode : Constant
Frame rate : 23.976 (24000/1001) FPS
Color space : YUV
Chroma subsampling : 4:2:0
Bit depth : 8 bits
Scan type : Progressive
Bits/(Pixel*Frame) : 0.270
Stream size : 5.58 GiB (74%)
Writing library : x264 core 157 r2938 2b00a84 [email protected] Mod
Encoding settings : cabac=1 / ref=9 / deblock=1:-3:-3 / analyse=0x3:0x133 / me=umh / subme=10 / psy=1 / psy_rd=1.05:0.00 / mixed_ref=1 / me_range=32 / chroma_me=1 / trellis=2 / 8x8dct=1 / cqm=0 / deadzone=21,11 / fast_pskip=0 / chroma_qp_offset=-2 / threads=12 / lookahead_threads=2 / sliced_threads=0 / nr=0 / decimate=0 / interlaced=0 / bluray_compat=0 / constrained_intra=0 / bframes=8 / b_pyramid=2 / b_adapt=2 / b_bias=0 / direct=3 / weightb=1 / open_gop=0 / weightp=2 / keyint=250 / keyint_min=24 / scenecut=40 / intra_refresh=0 / rc_lookahead=250 / rc=crf / mbtree=0 / crf=16.8 / qcomp=0.60 / qpmin=0 / qpmax=69 / qpstep=4 / vbv_maxrate=62500 / vbv_bufsize=78125 / crf_max=0.0 / nal_hrd=none / filler=0 / ip_ratio=1.30 / pb_ratio=1.20 / aq=3:0.80
Language : English
Default : Yes
Forced : No
Color range : Limited
Color primaries : BT.709
Matrix coefficients : BT.709

Audio #1
ID : 2
Format : AC-3
Format/Info : Audio Coding 3
Commercial name : Dolby Digital
Codec ID : A_AC3
Duration : 2 h 19 min
Bit rate mode : Constant
Bit rate : 448 kb/s
Channel(s) : 6 channels
Channel layout : L R C LFE Ls Rs
Sampling rate : 48.0 kHz
Frame rate : 31.250 FPS (1536 SPF)
Compression mode : Lossy
Stream size : 446 MiB (6%)
Title : Dub
Language : Russian
Service kind : Complete Main
Default : Yes
Forced : Yes

Audio #2
ID : 3
Format : E-AC-3
Format/Info : Enhanced AC-3
Commercial name : Dolby Digital Plus
Codec ID : A_EAC3
Duration : 2 h 19 min
Bit rate mode : Constant
Bit rate : 448 kb/s
Channel(s) : 6 channels
Channel layout : L R C LFE Ls Rs
Sampling rate : 48.0 kHz
Frame rate : 31.250 FPS (1536 SPF)
Compression mode : Lossy
Stream size : 446 MiB (6%)
Title : Dub
Language : Russian
Service kind : Complete Main
Default : No
Forced : No

Audio #3
ID : 4
Format : AC-3
Format/Info : Audio Coding 3
Commercial name : Dolby Digital
Codec ID : A_AC3
Duration : 2 h 19 min
Bit rate mode : Constant
Bit rate : 448 kb/s
Channel(s) : 6 channels
Channel layout : L R C LFE Ls Rs
Sampling rate : 48.0 kHz
Frame rate : 31.250 FPS (1536 SPF)
Compression mode : Lossy
Stream size : 446 MiB (6%)
Title : MVO [Jaskier]
Language : Russian
Service kind : Complete Main
Default : No
Forced : No

Audio #4
ID : 5
Format : AC-3
Format/Info : Audio Coding 3
Commercial name : Dolby Digital
Codec ID : A_AC3
Duration : 2 h 19 min
Bit rate mode : Constant
Bit rate : 640 kb/s
Channel(s) : 6 channels
Channel layout : L R C LFE Ls Rs
Sampling rate : 48.0 kHz
Frame rate : 31.250 FPS (1536 SPF)
Compression mode : Lossy
Stream size : 638 MiB (8%)
Title : Original
Language : English
Service kind : Complete Main
Default : No
Forced : No

Text #1
ID : 6
Format : UTF-8
Codec ID : S_TEXT/UTF8
Codec ID/Info : UTF-8 Plain Text
Duration : 17 min 25 s
Bit rate : 1 b/s
Count of elements : 2
Stream size : 146 Bytes (0%)
Title : Forced
Language : Russian
Default : Yes
Forced : Yes

Text #2
ID : 7
Format : UTF-8
Codec ID : S_TEXT/UTF8
Codec ID/Info : UTF-8 Plain Text
Duration : 2 h 10 min
Bit rate : 80 b/s
Count of elements : 1504
Stream size : 77.5 KiB (0%)
Title : Full [Kinopoisk HD]
Language : Russian
Default : No
Forced : No

Text #3
ID : 8
Format : UTF-8
Codec ID : S_TEXT/UTF8
Codec ID/Info : UTF-8 Plain Text
Duration : 2 h 12 min
Bit rate : 90 b/s
Count of elements : 1871
Stream size : 87.7 KiB (0%)
Title : Full [FOCS]
Language : Russian
Default : No
Forced : No

Text #4
ID : 9
Format : UTF-8
Codec ID : S_TEXT/UTF8
Codec ID/Info : UTF-8 Plain Text
Duration : 2 h 10 min
Bit rate : 44 b/s
Count of elements : 1615
Stream size : 42.8 KiB (0%)
Title : Full
Language : English
Default : No
Forced : No

Text #5
ID : 10
Format : UTF-8
Codec ID : S_TEXT/UTF8
Codec ID/Info : UTF-8 Plain Text
Duration : 2 h 18 min
Bit rate : 61 b/s
Count of elements : 2320
Stream size : 62.6 KiB (0%)
Title : SDH
Language : English
Default : No
Forced : No

Menu
00:00:00.000 : Chapter 01
00:07:05.050 : Chapter 02
00:11:45.705 : Chapter 03
00:24:55.327 : Chapter 04
00:32:52.262 : Chapter 05
00:42:08.109 : Chapter 06
00:52:26.602 : Chapter 07
01:01:51.625 : Chapter 08
01:10:27.974 : Chapter 09
01:17:09.041 : Chapter 10
01:25:09.104 : Chapter 11
01:31:54.509 : Chapter 12
01:39:50.818 : Chapter 13
01:51:25.679 : Chapter 14
01:59:09.142 : Chapter 15
02:10:08.467 : Chapter 16

pb.wtf



Скачать Всё везде и сразу через торрент https://i120.fastpic.org/big/2022/0608/3d/cc27b10a8a6b1d0c950953235084553d.jpg Скачать, смотреть онлайн Всё везде и сразу бесплантно в хорошем качестве Описание: Представьте, что существуют альтернативные варианты нашей реальности, где вы — совершенно другой человек. В этом лично убеждается ... 9.1 10 8
Торрент: Зарегистрирован [2022-06-19 04:13] · скачан: 185 раз
Статус: √ проверено
Размер: 7.51 GB
Как cкачать? Как скачать Всё везде и сразу через торрент | UTorrent

% Раздел Тема Автор DL S | L
Фильмы [HD 720p, 1080p] (Хороший звук DUB, MVO) [ 18.04 GB ] Всё везде и сразу / Everything Everywhere All at Once [2022 BDRip 1080p] DUB [СиПиАй Филмз / CPI Films] +MVO [Jaskier] bober100 Скачать
4 | 1
Фильмы 2022 [DVDrip, WEB-DLRip, HDrip] (DUB, MVO) [ 1.46 GB ] Всё везде и сразу / Everything Everywhere All at Once [2022 BDRip] DUB [СиПиАй Филмз / CPI Films] bober100 Скачать
4 | 0
Фильмы 2022 [DVDrip, WEB-DLRip, HDrip] (DUB, MVO) [ 2.18 GB ] Всё везде и сразу / Everything Everywhere All at Once [2022 BDRip] DUB [СиПиАй Филмз / CPI Films] bober100 Скачать
1 | 0
Фильмы 2022 [DVDrip, WEB-DLRip, HDrip] (DUB, MVO) [ 2.99 GB ] Всё везде и сразу / Everything Everywhere All at Once [2022 WEB-DLRip-AVC] DUB MVO [CPI Films Jaskier] от ExKinoRay Lithuania Скачать
4 | 1
Фильмы 2022 [DVDrip, WEB-DLRip, HDrip] (DUB, MVO) [ 1.46 GB ] Всё везде и сразу / Everything Everywhere All at Once [2022 WEB-DLRip] DUB [СиПиАй Филмз / CPI Films] bober100 Скачать
8 | 0
Ultra HD (UHD: 2K, 4K, 8K) — видео сверхвысокой чёткости [ 16.02 GB ] Всё везде и сразу / Everything Everywhere All at Once [2022 UHD WEB-DL-HEVC 2160p] DUB [СиПиАй Филмз / CPI Films] +MVO [Jaskier] bober100 Скачать
7 | 0
T Фильмы 2022 (Звук TS, Cam, VO, DVO) [ 2.75 GB ] Всё везде и сразу / Everything Everywhere All at Once [2022 WEB-DLRip-AVC] DUB [TS] bober100 Скачать
3 | 0

28-11-2019 20:33  

Отключить вcю реклaмy на сайте

    Дорогой пользователь! Огромная просьба, поблагодарите релизера, оцените раздачу и оставьте свои комментарий, если Вы скачали Всё везде и сразу через торрент бесплатно!
    Комментировать посты могут только пользователи прошедшие не сложную регистрацию
    Показать сообщения:    

    Всё везде и сразу через торрент
    Скачать бесплатно Всё везде и сразу
    Всё везде и сразу скачать торрент
    Всё везде и сразу смотреть онлайн
    Cкачать фильм Всё везде и сразу бесплатно
    Всё везде и сразу скачать торрент в хорошем качестве
    Всё везде и сразу смотреть онлайн бесплатно в хорошем качестве


    Вы не можете начинать темы
    Вы не можете отвечать на сообщения
    Вы не можете редактировать свои сообщения
    Вы не можете удалять свои сообщения
    Вы не можете голосовать в опросах
    Вы не можете прикреплять файлы к сообщениям
    Вы можете скачивать файлы