Доктор Стрэндж

Лицензия

Добыча

Дубляж

Уэнсдэй

1 сезон

Тор

Дубляж

В эфире

Дубляж

Там, где раки поют

MVO

Властелин колец

1 сезон

Deluxe

pack

Рекомендуем

30

Пиратка

ВАЖНО

ВАЖНО

Ghostwire

Пиратка

jed

RePack

nioh2

RePack

RDR2

RePack

NEED FOR SPEED™ PAYBACK

RePack

скачать торрент

Кинопоиск HD

Острые козырьки 6 сезон

6 сезон

FAR CRY 6

RePack

скачать торрент

Лицензия

скачать торрент

MVO

1

1 сезон

скачать торрент

1 сезон

скачать торрент

Лицензия

  

Всё везде и сразу / Everything Everywhere All at Once (Дэн Кван, Дэниэл Шайнерт) [2022, Фантастика, комедия, боевик, приключения, фэнтези, UHD WEB-DL-HEVC 2160p] Дубляж [СиПиАй Филмз / CPI Films] +MVO [Jaskier]

Всё везде и сразу через торрент pb.wtf

Раздают: 4 [ 0 KB/s ]
Размер: 16.02 GB | Добавлен: 5 мес. 28 д. назад | Торрент скачан:331 раз
Смотреть онлайн | Скачать   

08-06-2022 03:02 Всё везде и сразу Скачать торрент  

Всё везде и сразу
Everything Everywhere All at Once

Год выпуска: 2022
Страна: США
Выпущено: Hotdog Hands, Ley Line Entertainment, Russo Brothers, Year of The Rat
Жанр: Фантастика, комедия, боевик, приключения, фэнтези
Продолжительность: 02:19:19
Перевод(ы):
#1: Дублированный | СиПиАй Филмз / CPI Films
#2: Профессиональный (многоголосый закадровый) | Jaskier
Субтитры: Русские (2 x full), английские

Режиссер: Дэн Кван, Дэниэл Шайнерт

rating

В ролях: Мишель Йео, Джейми Ли Кертис, Стефани Хсю, Ке Хюи Куан, Джеймс Хонг, Одри Василевски, Энтони Молинари, Дженни Слейт, Гарри Шам-мл., Энди Ле

Описание: Представьте, что существуют альтернативные варианты нашей реальности, где вы — совершенно другой человек. В этом лично убеждается Эвелин (Мишель И?ео), получив доступ к воспоминаниям, эмоциям и невероятным способностям других версии? себя. Теперь Эвелин может прожить тысячи жизней и быть кем угодно — известной актрисой, мастером боевых искусств, оперной дивой и даже небесным божеством. Но всем мультивселенным угрожает таинственная сущность, с которой Эвелин предстоит сразиться. Как знать, возможно, заодно она разберётся и с самым страшным злом — своими налогами.

Качество: UHD WEB-DL-HEVC 2160p
Формат: MKV

Видео: 3836x2068 at 23.976 fps, MPEG-H HEVC HDR, ~ 14300 kbps avg
Аудио #01: 48 kHz, AC3, 5.1, 448 Kbps | СиПиАй Филмз / CPI Films | RUS |
Аудио #02: 48 kHz, E-AC3, 5.1, 448 Kbps | СиПиАй Филмз / CPI Films | RUS |
Аудио #03: 48 kHz, AC3, 5.1, 448 Kbps | Профессиональный многоголосый | Jaskier | RUS |
Аудио #04: 48 kHz, E-AC3+Atmos, 5.1, 768 Kbps | Оригинал | ENG |
скриншот  скриншот  скриншот  скриншот  скриншот  скриншот  

General
Unique ID : 305119706749715691108684601931029875073 (0xE58BEB0113DDFF88A0BCD454BAA50981)
Complete name : E:Video1Everything.Everywhere.All.At.Once.2022.D.MVO.WEB-DL.2160p.HDR.seleZen.mkv
Format : Matroska
Format version : Version 4
File size : 16.0 GiB
Duration : 2 h 19 min
Overall bit rate : 16.5 Mb/s
Movie name : Everything Everywhere All At Once 2022 from seleZen
Encoded date : UTC 2022-06-07 21:42:53
Writing application : mkvmerge v59.0.0 ('Shining Star') 64-bit
Writing library : libebml v1.4.2 + libmatroska v1.6.4

Video
ID : 1
Format : HEVC
Format/Info : High Efficiency Video Coding
Format profile : Main [email protected]@High
HDR format : SMPTE ST 2086, HDR10 compatible
Codec ID : V_MPEGH/ISO/HEVC
Duration : 2 h 19 min
Bit rate : 14.3 Mb/s
Width : 3 836 pixels
Height : 2 068 pixels
Display aspect ratio : 1.85:1
Frame rate mode : Constant
Frame rate : 23.976 FPS
Color space : YUV
Chroma subsampling : 4:2:0 (Type 2)
Bit depth : 10 bits
Bits/(Pixel*Frame) : 0.075
Stream size : 14.0 GiB (87%)
Language : English
Default : No
Forced : No
Color range : Limited
Color primaries : BT.2020
Transfer characteristics : PQ
Matrix coefficients : BT.2020 non-constant
Mastering display color pri: BT.2020
Mastering display luminance: min: 0.0050 cd/m2, max: 1000 cd/m2
Maximum Content Light Level: 1225 cd/m2
Maximum Frame-Average Light: 204 cd/m2

Audio #1
ID : 2
Format : AC-3
Format/Info : Audio Coding 3
Commercial name : Dolby Digital
Codec ID : A_AC3
Duration : 2 h 19 min
Bit rate mode : Constant
Bit rate : 448 kb/s
Channel(s) : 6 channels
Channel layout : L R C LFE Ls Rs
Sampling rate : 48.0 kHz
Frame rate : 31.250 FPS (1536 SPF)
Compression mode : Lossy
Stream size : 446 MiB (3%)
Title : Дубляж
Language : Russian
Service kind : Complete Main
Default : Yes
Forced : Yes

Audio #2
ID : 3
Format : E-AC-3
Format/Info : Enhanced AC-3
Commercial name : Dolby Digital Plus
Codec ID : A_EAC3
Duration : 2 h 19 min
Bit rate mode : Constant
Bit rate : 448 kb/s
Channel(s) : 6 channels
Channel layout : L R C LFE Ls Rs
Sampling rate : 48.0 kHz
Frame rate : 31.250 FPS (1536 SPF)
Compression mode : Lossy
Stream size : 446 MiB (3%)
Title : Дубляж
Language : Russian
Service kind : Complete Main
Default : No
Forced : No

Audio #3
ID : 4
Format : AC-3
Format/Info : Audio Coding 3
Commercial name : Dolby Digital
Codec ID : A_AC3
Duration : 2 h 19 min
Bit rate mode : Constant
Bit rate : 448 kb/s
Channel(s) : 6 channels
Channel layout : L R C LFE Ls Rs
Sampling rate : 48.0 kHz
Frame rate : 31.250 FPS (1536 SPF)
Compression mode : Lossy
Stream size : 446 MiB (3%)
Title : MVO [Jaskier]
Language : Russian
Service kind : Complete Main
Default : No
Forced : No

Audio #4
ID : 5
Format : E-AC-3 JOC
Format/Info : Enhanced AC-3 with Joint Object Coding
Commercial name : Dolby Digital Plus with Dolby Atmos
Codec ID : A_EAC3
Duration : 2 h 19 min
Bit rate mode : Constant
Bit rate : 768 kb/s
Channel(s) : 6 channels
Channel layout : L R C LFE Ls Rs
Sampling rate : 48.0 kHz
Frame rate : 31.250 FPS (1536 SPF)
Compression mode : Lossy
Stream size : 765 MiB (5%)
Title : Original
Language : English
Service kind : Complete Main
Default : No
Forced : No
Complexity index : 16
Number of dynamic objects : 15
Bed channel count : 1 channel
Bed channel configuration : LFE

Text #1
ID : 6
Format : UTF-8
Codec ID : S_TEXT/UTF8
Codec ID/Info : UTF-8 Plain Text
Duration : 2 h 10 min
Bit rate : 80 b/s
Count of elements : 1504
Stream size : 77.5 KiB (0%)
Title : Full [Kinopoisk HD]
Language : Russian
Default : No
Forced : No

Text #2
ID : 7
Format : UTF-8
Codec ID : S_TEXT/UTF8
Codec ID/Info : UTF-8 Plain Text
Duration : 2 h 12 min
Bit rate : 90 b/s
Count of elements : 1871
Stream size : 87.7 KiB (0%)
Title : Full [FOCS]
Language : Russian
Default : No
Forced : No

Text #3
ID : 8
Format : UTF-8
Codec ID : S_TEXT/UTF8
Codec ID/Info : UTF-8 Plain Text
Duration : 2 h 10 min
Bit rate : 44 b/s
Count of elements : 1615
Stream size : 42.8 KiB (0%)
Title : Full
Language : English
Default : No
Forced : No

Text #4
ID : 9
Format : UTF-8
Codec ID : S_TEXT/UTF8
Codec ID/Info : UTF-8 Plain Text
Duration : 2 h 18 min
Bit rate : 61 b/s
Count of elements : 2320
Stream size : 62.6 KiB (0%)
Title : SDH
Language : English
Default : No
Forced : No

Menu
00:00:00.000 : Chapter 01
00:11:29.000 : Chapter 02
00:19:59.000 : Chapter 03
00:31:03.000 : Chapter 04
00:42:14.000 : Chapter 05
00:51:26.000 : Chapter 06
01:02:24.000 : Chapter 07
01:10:56.000 : Chapter 08
01:19:33.000 : Chapter 09
01:28:06.000 : Chapter 10
01:39:54.000 : Chapter 11
01:49:18.000 : Chapter 12
02:01:21.000 : Chapter 13
02:12:19.000 : Chapter 14




Скачать Всё везде и сразу через торрент https://i120.fastpic.org/big/2022/0608/3d/cc27b10a8a6b1d0c950953235084553d.jpg Скачать, смотреть онлайн Всё везде и сразу бесплантно в хорошем качестве Описание: Представьте, что существуют альтернативные варианты нашей реальности, где вы — совершенно другой человек. В этом лично убеждается ... 9 10 7
Торрент: Зарегистрирован [2022-06-08 03:02] · скачан: 331 раз
Статус: √ проверено
Размер: 16.02 GB
Как cкачать? Как скачать Всё везде и сразу через торрент | UTorrent

% Раздел Тема Автор DL S | L
Фильмы 2022 [DVDrip, WEB-DLRip, HDrip] (DUB, MVO) [ 2.18 GB ] Всё везде и сразу / Everything Everywhere All at Once | DUB | BDRip bober100 Скачать
6 | 0
T Фильмы 2022 (Звук TS, Cam, VO, DVO) [ 2.75 GB ] Всё везде и сразу / Everything Everywhere All at Once | DUB | DLRip-AVC bober100 Скачать
2 | 0
Фильмы [HD 720p, 1080p] (Хороший звук DUB, MVO) [ 18.04 GB ] Всё везде и сразу / Everything Everywhere All at Once | Jaskier | 1080p bober100 Скачать
2 | 0
Фильмы 2022 [DVDrip, WEB-DLRip, HDrip] (DUB, MVO) [ 1.46 GB ] Всё везде и сразу / Everything Everywhere All at Once | DUB | BDRip bober100 Скачать
12 | 0
Фильмы 2022 [DVDrip, WEB-DLRip, HDrip] (DUB, MVO) [ 2.99 GB ] Всё везде и сразу / Everything Everywhere All at Once | Jaskier | DLRip-AVC Lithuania Скачать
5 | 0
Фильмы 2022 [DVDrip, WEB-DLRip, HDrip] (DUB, MVO) [ 1.46 GB ] Всё везде и сразу / Everything Everywhere All at Once | DUB | DLRip bober100 Скачать
6 | 0
Фильмы [HD 720p, 1080p] (Хороший звук DUB, MVO) [ 7.51 GB ] Всё везде и сразу / Everything Everywhere All at Once | Jaskier | 720p bober100 Скачать
3 | 0

28-11-2019 20:33  


Отключить вcю реклaмy на сайте, в т.ч. и в плеере онлайн просмотра!

07-09-2022 21:53 Всё везде и сразу Скачать торрент  

откуда такой высокий рейтинг, по мне дак фильм бред полнейший



    Дорогой пользователь! Огромная просьба, поблагодарите релизера, оцените раздачу и оставьте свои комментарий, если Вы скачали Всё везде и сразу через торрент бесплатно!!
    Комментировать посты могут только пользователи прошедшие не сложную регистрацию
    Показать сообщения:    


    Всё везде и сразу через торрент
    Скачать бесплатно Всё везде и сразу
    Всё везде и сразу скачать торрент
    Всё везде и сразу смотреть онлайн
    Cкачать фильм Всё везде и сразу бесплатно
    Всё везде и сразу скачать торрент в хорошем качестве
    Всё везде и сразу смотреть онлайн бесплатно в хорошем качестве
    Вы не можете начинать темы
    Вы не можете отвечать на сообщения
    Вы не можете редактировать свои сообщения
    Вы не можете удалять свои сообщения
    Вы не можете голосовать в опросах
    Вы не можете прикреплять файлы к сообщениям
    Вы можете скачивать файлы
    Всё везде и сразу / Everything Everywhere All at Once [2022, Фантастика, комедия, боевик, приключения, фэнтези, UHD WEB-DL-HEVC 2160p] Дубляж [СиПиАй Филмз / CPI Films] +MVO [Jaskier] смотреть онлайн, скачать торрент picoco.icu