Доктор Стрэндж

Лицензия

Добыча

Дубляж

Дом дракона

1 сезон

Тор

Дубляж

В эфире

Дубляж

Там, где раки поют

MVO

Властелин колец

1 сезон

Deluxe

pack

Рекомендуем

30

Пиратка

ВАЖНО

ВАЖНО

Ghostwire

Пиратка

jed

RePack

nioh2

RePack

RDR2

RePack

NEED FOR SPEED™ PAYBACK

RePack

скачать торрент

Кинопоиск HD

Острые козырьки 6 сезон

6 сезон

FAR CRY 6

RePack

скачать торрент

Лицензия

скачать торрент

MVO

1

1 сезон

скачать торрент

1 сезон

скачать торрент

Лицензия

  

Шан-Чи и легенда десяти колец в 3D / Shang-Chi and the Legend of the Ten Rings in 3D (Дестин Дэниел Креттон) [2021 г., Фантастика, фэнтези, боевик, приключения, BDRip 1080p, Дубляж] Анаглиф (Дюбуа) от R.G. HD-Films

Шан-Чи и легенда десяти колец в 3D через торрент pb.wtf

Размер: 7.32 GB | Добавлен: 5 мес. 24 д. назад | Торрент скачан:8 раз
Смотреть онлайн | Скачать   

08-06-2022 08:49 Шан-Чи и легенда десяти колец в 3D Скачать торрент  

Шан-Чи и легенда десяти колец в 3D / Shang-Chi and the Legend of the Ten Rings in 3D
Год выпуска: 2021
Страна: США, Австралия
Жанр: Фантастика, фэнтези, боевик, приключения
Продолжительность: 02:12:21
Перевод: Дубляж
Субтитры: Русские (Forced вшитые, full), украинские (Forced), английские

Режиссер: Дестин Дэниел Креттон

Бюджет: $150 000 000
Премьера в мире: 16 августа 2021

rating

В ролях: Симу Лю, Тони Люн Чу Вай, Аквафина, Мишель Йео, Флориан Мунтяну, Ронни Чиэн, Чэнь Фала, Даллас Джеймс Лью, Чжан Мэнъэр, Тим Рот, Бенедикт Вонг, Бен Кингсли

Описание: Благодаря изнуряющим тренировкам и жесткому воспитанию отца Шан-Чи достиг небывалых высот в боевых искусствах, но выбрал не ту жизнь, которую уготовил для него родитель. Работая простым парковщиком в Сан-Франциско, Шан-Чи сталкивается с призраками прошлого и вместе с подругой Кэти оказывается втянут в водоворот фантастических событий, связанных с таинственной организацией «Десять колец».

Доп. информация: Вшитые русские субтитры на китайскую речь
Формат 3D: Анаглиф (Дюбуа)



Качество: BDRip 1080p
Формат: MKV
Видео кодек: H.264
Аудио кодек: AC3
Видео: 1920 x 1080 (16:9), 6445 kbps, 23,976 fps, 0.130 bpp
Аудио#1: Русский / AC3 / 48 KHz / 5.1 ch / 448 Kbps (Дубляж - Невафильм) (Кинопоиск HD)
Аудио#2: Украинский / AC3 / 48 KHz / 5.1 ch / 384 Kbps (MVO - DniproFilm) (HDRezka) (спасибо Hurtom!)
Аудио#3: English / AC3 / 48 KHz / 5.1 ch / 640 Kbps (Original - BD 3D Jap)
Релиз от: Автор рипа: slaventi-69
x264 [info]: profile High, level 4.1
x264 [info]: frame I:1453 Avg QP:12.84 size:140453
x264 [info]: frame P:55017 Avg QP:14.24 size: 58700
x264 [info]: frame B:133918 Avg QP:16.29 size: 22132
x264 [info]: consecutive B-frames: 4.3% 5.7% 20.8% 34.0% 35.1%

Общее
Уникальный идентификатор : 209492719712010457095923130558670693337 (0x9D9AD48825CC8B9B20F3541EFA9BE3D9)
Полное имя : G:\60 FPS\Shang-Chi(2021)3D.(Anaglyph_Dubois).mkv
Формат : Matroska
Версия формата : Version 4
Размер файла : 7,32 Гбайт
Продолжительность : 2 ч. 12 м.
Общий поток : 7920 Кбит/сек
Название фильма : Шан-Чи и легенда десяти колец / Shang-Chi and the Legend of the Ten Rings (2021) in 3D(Anaglyph_Dubois)
Дата кодирования : UTC 2022-06-08 07:33:39
Программа кодирования : mkvmerge v25.0.0 ('Prog Noir') 64-bit
Библиотека кодирования : libebml v1.3.6 + libmatroska v1.4.9

Видео
Идентификатор : 1
Формат : AVC
Формат/Информация : Advanced Video Codec
Профиль формата : [email protected]
MultiView_Count : 2
MultiView_Layout : Anaglyph (cyan/red)
Настройки формата : CABAC / 4 Ref Frames
Параметр CABAC формата : Да
Параметр RefFrames формата : 4 кадра
Идентификатор кодека : V_MPEG4/ISO/AVC
Продолжительность : 2 ч. 12 м.
Битрейт : 6445 Кбит/сек
Ширина : 1920 пикселей
Высота : 1080 пикселей
Соотношение сторон : 16:9
Режим частоты кадров : Постоянный
Частота кадров : 23,976 кадра/сек
Цветовое пространство : YUV
Субдискретизация насыщенности : 4:2:0
Битовая глубина : 8 бит
Тип развёртки : Прогрессивная
Бит/(Пиксели*Кадры) : 0.130
Размер потока : 5,96 Гбайт (81%)
Заголовок : slaventi-69 ( R.G. HD-Films ) 3Д (Anaglyph_Dubois)
Библиотека кодирования : x264 core 130 r2273 b3065e6
Настройки программы : cabac=1 / ref=4 / deblock=1:-3:-3 / analyse=0x3:0x133 / me=umh / subme=9 / psy=1 / psy_rd=1.00:0.00 / mixed_ref=1 / me_range=32 / chroma_me=1 / trellis=2 / 8x8dct=1 / cqm=0 / deadzone=21,11 / fast_pskip=0 / chroma_qp_offset=-2 / threads=8 / lookahead_threads=4 / sliced_threads=0 / nr=0 / decimate=1 / interlaced=0 / bluray_compat=0 / constrained_intra=0 / bframes=4 / b_pyramid=2 / b_adapt=2 / b_bias=0 / direct=1 / weightb=1 / open_gop=0 / weightp=2 / keyint=600 / keyint_min=23 / scenecut=40 / intra_refresh=0 / rc=crf / mbtree=0 / crf=20.0 / qcomp=0.60 / qpmin=0 / qpmax=69 / qpstep=4 / ip_ratio=1.40 / pb_ratio=1.30 / aq=1:1.00
Язык : English
Default : Да
Forced : Нет

Аудио #1
Идентификатор : 2
Формат : AC-3
Формат/Информация : Audio Coding 3
Коммерческое название : Dolby Digital
Идентификатор кодека : A_AC3
Продолжительность : 2 ч. 12 м.
Вид битрейта : Постоянный
Битрейт : 448 Кбит/сек
Каналы : 6 каналов
Channel layout : L R C LFE Ls Rs
Частота : 48,0 КГц
Частота кадров : 31,250 кадров/сек (1536 SPF)
Битовая глубина : 16 бит
Метод сжатия : С потерями
Размер потока : 424 Мбайт (6%)
Заголовок : Дубляж - Невафильм (Кинопоиск HD)
Язык : Russian
ServiceKind/String : Complete Main
Default : Да
Forced : Нет

Аудио #2
Идентификатор : 3
Формат : AC-3
Формат/Информация : Audio Coding 3
Коммерческое название : Dolby Digital
Идентификатор кодека : A_AC3
Продолжительность : 2 ч. 12 м.
Вид битрейта : Постоянный
Битрейт : 384 Кбит/сек
Каналы : 6 каналов
Channel layout : L R C LFE Ls Rs
Частота : 48,0 КГц
Частота кадров : 31,250 кадров/сек (1536 SPF)
Битовая глубина : 16 бит
Метод сжатия : С потерями
Размер потока : 363 Мбайт (5%)
Заголовок : MVO - HDRezka (DniproFilm)
Язык : Ukrainian
ServiceKind/String : Complete Main
Default : Нет
Forced : Нет

Аудио #3
Идентификатор : 4
Формат : AC-3
Формат/Информация : Audio Coding 3
Коммерческое название : Dolby Digital
Идентификатор кодека : A_AC3
Продолжительность : 2 ч. 12 м.
Вид битрейта : Постоянный
Битрейт : 640 Кбит/сек
Каналы : 6 каналов
Channel layout : L R C LFE Ls Rs
Частота : 48,0 КГц
Частота кадров : 31,250 кадров/сек (1536 SPF)
Битовая глубина : 16 бит
Метод сжатия : С потерями
Размер потока : 606 Мбайт (8%)
Заголовок : Original (BD 3D Jap)
Язык : English
ServiceKind/String : Complete Main
Default : Нет
Forced : Нет

Текст #1
Идентификатор : 5
Формат : UTF-8
Идентификатор кодека : S_TEXT/UTF8
Идентификатор кодека/Информация : UTF-8 Plain Text
Продолжительность : 2 ч. 11 м.
Битрейт : 59 бит/сек
ElementCount : 1121
Размер потока : 56,9 Кбайт (0%)
Заголовок : Полные
Язык : Russian
Default : Нет
Forced : Нет

Текст #2
Идентификатор : 6
Формат : UTF-8
Идентификатор кодека : S_TEXT/UTF8
Идентификатор кодека/Информация : UTF-8 Plain Text
Продолжительность : 2 ч. 11 м.
Битрейт : 9 бит/сек
ElementCount : 208
Размер потока : 9,15 Кбайт (0%)
Заголовок : Форсированные (на китайскую речь и на надписи)
Язык : Ukrainian
Default : Нет
Forced : Нет

Текст #3
Идентификатор : 7
Формат : UTF-8
Идентификатор кодека : S_TEXT/UTF8
Идентификатор кодека/Информация : UTF-8 Plain Text
Продолжительность : 1 ч. 55 м.
Битрейт : 5 бит/сек
ElementCount : 188
Размер потока : 4,97 Кбайт (0%)
Заголовок : Forced
Язык : English
Default : Нет
Forced : Нет

Текст #4
Идентификатор : 8
Формат : UTF-8
Идентификатор кодека : S_TEXT/UTF8
Идентификатор кодека/Информация : UTF-8 Plain Text
Продолжительность : 2 ч. 10 м.
Битрейт : 38 бит/сек
ElementCount : 1302
Размер потока : 36,9 Кбайт (0%)
Заголовок : Full
Язык : English
Default : Нет
Forced : Нет

Текст #5
Идентификатор : 9
Формат : UTF-8
Идентификатор кодека : S_TEXT/UTF8
Идентификатор кодека/Информация : UTF-8 Plain Text
Продолжительность : 2 ч. 11 м.
Битрейт : 51 бит/сек
ElementCount : 1850
Размер потока : 49,2 Кбайт (0%)
Заголовок : SDH
Язык : English
Default : Нет
Forced : Нет

Меню
00:00:00.000 : :1
00:03:52.858 : :2
00:09:28.985 : :3
00:16:17.185 : :4
00:22:47.491 : :5
00:31:59.668 : :6
00:42:49.484 : :7
00:52:21.055 : :8
00:56:51.325 : :9
01:00:35.006 : :10
01:08:46.122 : :11
01:15:55.050 : :12
01:19:51.286 : :13
01:29:49.676 : :14
01:36:45.800 : :15
01:47:00.623 : :16
01:55:25.293 : :17
02:00:07.242 : :18
02:01:46.132 : :19
02:04:08.858 : :20
02:10:39.248 : :21

Просьба к переливающим на другие сайты, в оформлении указывайте пожалуйста авторство группы R.G. HD-Films



Скачать Шан-Чи и легенда десяти колец в 3D через торрент https://i.postimg.cc/DfrnP641/c9a033783823404daa4a6177a7f7017a.png Скачать, смотреть онлайн Шан-Чи и легенда десяти колец в 3D бесплантно в хорошем качестве Описание: Благодаря изнуряющим тренировкам и жесткому воспитанию отца Шан-Чи достиг небывалых высот в боевых искусствах, но выбрал не ту ... 10 10 1
Торрент: Зарегистрирован [2022-06-08 08:49] · скачан: 8 раз
Статус: √ проверено
Размер: 7.32 GB
Как cкачать? Как скачать Шан-Чи и легенда десяти колец в 3D через торрент | UTorrent

% Раздел Тема Автор DL S | L
3D Фильмы [ 11.71 GB ] Шан-Чи и легенда десяти колец в 3Д / Shang-Chi and the Legend of the Ten Rings 3D | DUB | 1080p, (Half OverUnder bober100 Скачать
1 | 0
3D Фильмы [ 18.78 GB ] Шан-Чи и легенда десяти колец в 3Д / Shang-Chi and the Legend of the Ten Rings 3D | er / Вертикальная стереопара | 1080p serega768 Скачать
1 | 0

28-11-2019 20:33  


Отключить вcю реклaмy на сайте, в т.ч. и в плеере онлайн просмотра!

    Дорогой пользователь! Огромная просьба, поблагодарите релизера, оцените раздачу и оставьте свои комментарий, если Вы скачали Шан-Чи и легенда десяти колец в 3D через торрент бесплатно!!
    Комментировать посты могут только пользователи прошедшие не сложную регистрацию
    Показать сообщения:    


    Шан-Чи и легенда десяти колец в 3D через торрент
    Скачать бесплатно Шан-Чи и легенда десяти колец в 3D
    Шан-Чи и легенда десяти колец в 3D скачать торрент
    Шан-Чи и легенда десяти колец в 3D смотреть онлайн
    Cкачать фильм Шан-Чи и легенда десяти колец в 3D бесплатно
    Шан-Чи и легенда десяти колец в 3D скачать торрент в хорошем качестве
    Шан-Чи и легенда десяти колец в 3D смотреть онлайн бесплатно в хорошем качестве
    Вы не можете начинать темы
    Вы не можете отвечать на сообщения
    Вы не можете редактировать свои сообщения
    Вы не можете удалять свои сообщения
    Вы не можете голосовать в опросах
    Вы не можете прикреплять файлы к сообщениям
    Вы можете скачивать файлы
    Шан-Чи и легенда десяти колец в 3D / Shang-Chi and the Legend of the Ten Rings in 3D [2021 г., Фантастика, фэнтези, боевик, приключения, BDRip 1080p, Дубляж] Анаглиф от R.G. HD-Films смотреть онлайн, скачать торрент picoco.icu