Всегда рабочее зеркало без VPN и Proxy просто перед .vidak.icu напиши любое слово или цифру, Пример http://h8nt.vidak.icu

MVO

MVO

1 сезон

1

1 сезон

iTunes

1 сезон

13

1 сезон

Deluxe

pack

Рекомендуем

Repack

30

ВАЖНО

RePack

MK11

RePack

jed

RePack

fifa19

RePack

RDR2

RePack

NEED FOR SPEED™ PAYBACK

Кинопоиск HD

6 сезон

 Острые козырьки 6 сезон

Все сериалы

все сериалы на PB.wtf

RePack

FAR CRY 5
  
Magnet ссылка

Мультивселенная / Multiverse / Entangled (Гурав Сет) [2019, фантастика, драма, HDRip-AVC] DUB [iTunes] pb.wtf

Мультивселенная через торрент pb.wtf

Раздают: 1 [ 0 KB/s ]
Размер: 1.8 GB | Добавлен: 2 мес. 3 д. назад | Торрент скачан:122 раза
Смотреть онлайн Мультивселенная | Скачать    Ребята, помогите собрать деньги на оплату серверов!!!

08-06-2022 10:41 Мультивселенная Скачать торрент  


Мультивселенная / Multiverse / Entangled
Информация о фильме:
Название: Мультивселенная
Оригинальное название: Multiverse / Entangled
Год выхода: 2019
Жанр: фантастика, драма
Режиссер: Гурав Сет
В ролях: Манро Чэмберс, Сандра Мэй Фрэнк, Палома Квиатковски, Роберт Нэйлор, Марли Мэтлин, Шона Блэк

Описание: Пытаясь завершить научный эксперимент по поиску параллельных вселенных, исследовательница Лоретта неожиданно погибает в автомобильной катастрофе. Пять месяцев спустя, когда её коллеги всё же пытаются продолжить начатое дело, девушка внезапно возвращается к ним живой и невредимой. Вскоре начинают происходить и другие странные события, и герои понимают, что, возможно, их эксперимент привёл к запутанному параллельному существованию.



Страна: Канада
Студия: Always a Pleasure Films, Moving Story 2 Film
Продолжительность: 01:31:19
Перевод: Дублированный - iTunes



Информация о файле:
Кодек: AVC
Формат: MKV
Качество: HDRip-AVC
Видео: MPEG-4 AVC, 1024x428, 23.976 fps, 1990 kbps
Аудио RU: AC3, 6 ch, 48 kHz, 384 kbps
Аудио EN: AC3, 6 ch, 48 kHz, 448 kbps
Субтитры: Английские



x264 info: frame I:961 Avg QP:12.42 size: 74527
x264 info: frame P:26315 Avg QP:15.29 size: 22718
x264 info: frame B:104085 Avg QP:16.31 size: 6654
General
Unique ID : 42266628339915171311271544224493718155 (0x1FCC41AB15FA30CD0CE2591B4C1DCA8B)
Complete name : D:uTorrentРипы wolf1245Multiverse.Entangled.2019.DUB.iTunes.x264.HDRip-AVC.[wolf1245.ExKinoRay].mkv
Format : Matroska
Format version : Version 4
File size : 1.80 GiB
Duration : 1 h 31 min
Overall bit rate : 2 823 kb/s
Movie name : Multiverse.Entangled.2019.DUB.iTunes.x264.HDRip-AVC.[wolf1245.ExKinoRay]
Encoded date : UTC 2022-06-08 10:29:47
Writing application : mkvmerge v68.0.0 ('The Curtain') 64-bit
Writing library : libebml v1.4.2 + libmatroska v1.6.4
Video
ID : 1
Format : AVC
Format/Info : Advanced Video Codec
Format profile : [email protected]
Format settings : CABAC / 10 Ref Frames
Format settings, CABAC : Yes
Format settings, Reference frames : 10 frames
Codec ID : V_MPEG4/ISO/AVC
Duration : 1 h 31 min
Bit rate : 1 990 kb/s
Width : 1 024 pixels
Height : 428 pixels
Display aspect ratio : 2.40:1
Frame rate mode : Constant
Frame rate : 23.976 (24000/1001) FPS
Color space : YUV
Chroma subsampling : 4:2:0
Bit depth : 8 bits
Scan type : Progressive
Bits/(Pixel*Frame) : 0.189
Stream size : 1.27 GiB (70%)
Title : -=[wolf1245.ExKinoRay]=-
Writing library : x264 core 163 r3060 5db6aa6
Encoding settings : cabac=1 / ref=10 / deblock=1:-3:-2 / analyse=0x3:0x133 / me=umh / subme=10 / psy=1 / psy_rd=1.05:0.05 / mixed_ref=1 / me_range=32 / chroma_me=1 / trellis=2 / 8x8dct=1 / cqm=0 / deadzone=22,11 / fast_pskip=1 / chroma_qp_offset=-3 / threads=10 / lookahead_threads=2 / sliced_threads=0 / nr=0 / decimate=0 / interlaced=0 / bluray_compat=0 / constrained_intra=0 / bframes=10 / b_pyramid=2 / b_adapt=2 / b_bias=0 / direct=3 / weightb=1 / open_gop=0 / weightp=2 / keyint=240 / keyint_min=24 / scenecut=40 / intra_refresh=0 / rc_lookahead=150 / rc=2pass / mbtree=0 / bitrate=1990 / ratetol=1.0 / qcomp=0.60 / qpmin=0 / qpmax=69 / qpstep=4 / cplxblur=20.0 / qblur=0.5 / vbv_maxrate=50000 / vbv_bufsize=62500 / nal_hrd=none / filler=0 / ip_ratio=1.40 / pb_ratio=1.30 / aq=1:1.10
Language : English
Default : Yes
Forced : No
Color range : Limited
Color primaries : BT.709
Matrix coefficients : BT.709
Audio #1
ID : 2
Format : AC-3
Format/Info : Audio Coding 3
Commercial name : Dolby Digital
Codec ID : A_AC3
Duration : 1 h 31 min
Bit rate mode : Constant
Bit rate : 384 kb/s
Channel(s) : 6 channels
Channel layout : L R C LFE Ls Rs
Sampling rate : 48.0 kHz
Frame rate : 31.250 FPS (1536 SPF)
Compression mode : Lossy
Stream size : 251 MiB (14%)
Title : DUB | iTunes | RUS
Language : Russian
Service kind : Complete Main
Default : Yes
Forced : Yes
Audio #2
ID : 3
Format : AC-3
Format/Info : Audio Coding 3
Commercial name : Dolby Digital
Codec ID : A_AC3
Duration : 1 h 31 min
Bit rate mode : Constant
Bit rate : 448 kb/s
Channel(s) : 6 channels
Channel layout : L R C LFE Ls Rs
Sampling rate : 48.0 kHz
Frame rate : 31.250 FPS (1536 SPF)
Compression mode : Lossy
Stream size : 293 MiB (16%)
Title : Original | ENG
Language : English
Service kind : Complete Main
Default : No
Forced : No
Text
ID : 4
Format : UTF-8
Codec ID : S_TEXT/UTF8
Codec ID/Info : UTF-8 Plain Text
Duration : 1 h 24 min
Bit rate : 42 b/s
Count of elements : 1037
Stream size : 26.2 KiB (0%)
Language : English
Default : No
Forced : No
Menu
00:00:00.000 : :Chapter 01
00:10:14.489 : :Chapter 02
00:18:58.846 : :Chapter 03
00:29:35.023 : :Chapter 04
00:39:18.106 : :Chapter 05
00:48:41.752 : :Chapter 06
00:57:50.509 : :Chapter 07
01:07:58.616 : :Chapter 08
01:17:15.297 : :Chapter 09
01:28:25.091 : :Chapter 10
Релиз от:
Автор релиза:
pb.wtf



Скачать Мультивселенная через торрент http://i2.imageban.ru/out/2022/06/08/aa8aef19d0170749199eed36fc561310.png Скачать, смотреть онлайн Мультивселенная бесплантно в хорошем качестве Описание: Пытаясь завершить научный эксперимент по поиску параллельных вселенных, исследовательница Лоретта неожиданно погибает в ... 10 10 3
Торрент: Зарегистрирован [2022-06-08 10:41] · скачан: 122 раз
Статус: √ проверено
Размер: 1.8 GB
Как cкачать? Как скачать Мультивселенная через торрент | UTorrent

% Раздел Тема Автор DL S | L
Фильмы 2019-2020 [DVDrip, WEB-DLRip, HDrip] (DUB, MVO) [ 745 MB ] Мультивселенная / Multiverse / Entangled [2019 BDRip] bober100 Скачать
2 | 0
Фильмы 2019-2020 [DVDrip, WEB-DLRip, HDrip] (DUB, MVO) [ 1.41 GB ] Мультивселенная / Multiverse / Entangled [2019 BDRip] bober100 Скачать
3 | 0
Фильмы [HD 720p, 1080p] (Хороший звук DUB, MVO) [ 4.26 GB ] Мультивселенная / Multiverse / Entangled [2019 BDRip 720p] bober100 Скачать
1 | 0
Фильмы [HD 720p, 1080p] (Хороший звук DUB, MVO) [ 8.17 GB ] Мультивселенная / Multiverse / Entangled [2019 BDRip 1080p] bober100 Скачать
3 | 0

28-11-2019 20:33  

Отключить вcю реклaмy на сайте

    Дорогой пользователь! Огромная просьба, поблагодарите релизера, оцените раздачу и оставьте свои комментарий, если Вы скачали Мультивселенная через торрент бесплатно!
    Комментировать посты могут только пользователи прошедшие не сложную регистрацию
    Показать сообщения:    

    Мультивселенная через торрент
    Скачать бесплатно Мультивселенная
    Мультивселенная скачать торрент
    Мультивселенная смотреть онлайн
    Cкачать фильм Мультивселенная бесплатно
    Мультивселенная скачать торрент в хорошем качестве
    Мультивселенная смотреть онлайн бесплатно в хорошем качестве


    Вы не можете начинать темы
    Вы не можете отвечать на сообщения
    Вы не можете редактировать свои сообщения
    Вы не можете удалять свои сообщения
    Вы не можете голосовать в опросах
    Вы не можете прикреплять файлы к сообщениям
    Вы можете скачивать файлы