Всегда рабочее зеркало без VPN и Proxy просто перед .vidak.icu напиши любое слово или цифру, Пример http://25s6.vidak.icu

MVO

Лицензия

1 сезон

1

1 сезон

iTunes

1 сезон

13

1 сезон

Deluxe

pack

Рекомендуем

Пиратка

30

ВАЖНО

RePack

MK11

RePack

jed

RePack

fifa19

RePack

RDR2

RePack

NEED FOR SPEED™ PAYBACK

Кинопоиск HD

6 сезон

 Острые козырьки 6 сезон

Все сериалы

все сериалы на PB.wtf

RePack

FAR CRY 5

Anonymous, нам критически не хватает 2100 руб. на оплату серверов и переферии за МАЙ, помоги нам пожалуйста, вся надежда только на тебя. В благодарность мы отключим тебе всю рекламу на сайте!

×
  
Magnet ссылка

Мокьюментари / Сезон: 1 / Серии: 1-6 из 8 (Олег Витвицки) [2022, Комедия, драма, WEBRip 1080p] pb.wtf

Мокьюментари через торрент pb.wtf

Раздают: 2 [ 0 KB/s ]
Размер: 4.64 GB | Добавлен: 2 д. 22 ч. назад | Торрент скачан:5 раз
Смотреть онлайн Мокьюментари | Скачать    Ребята, помогите собрать деньги на оплату серверов!!!

09-06-2022 03:19 Мокьюментари Скачать торрент  

Мокьюментари
Год выпуска: 2022
Страна: Россия
Жанр: Комедия, драма
Продолжительность: ~ 00:25:00
Перевод: Не требуется

Режиссер: Олег Витвицки



В ролях: Юлия Волкова, Михаил Тройник, Софья Шуткина, Виталий Коваленко, Ирина Воронова, Павел Майков, Игорь Ветров, Елена Панджариди, Марина Барсукова, Ася Калинина, Сергей Комаров, Николай Аверюшкин, Елена Анисимова, Андрей Бодренков, Лерика Витвицки, Валерия Гладилина, Станислав Бондаренко, Виктор Васильев, Александр Вдовин, Олег Куксовский, Максим Логинов, Александр Мехряков, Александр Назаров, Кирилл Назаров, Анастасия Тодореску, Александра Тулинова, Сергей Федюшкин, Александр Хатников, Людмила Чурсина, Андрей Филиппак, Карен Оганесян, Екатерина Рокотова, Марина Вольхина, Александра Новикова, Кирилл Плотников, Анна Соколова, Артур Суворов

Описание: Юлия Зайцева с детства мечтает о мировом признании, вот только с ролями ей никак не везет — девушке предлагают сниматься только в дешевых мыльных сериалах. Она искренне убеждена, что ее талант достоин «Оскара», но как именитым режиссерам обратить на нее внимание? В своих бедах Юлия винит непутевого актерского агента Мишу, который с ней работает много лет и пытается найти для нее стоящую роль.

Качество: WEBRip 1080p
Формат: MKV

Видео: MPEG-4 AVC, 1920x816, ~ 4500 Кбит/с, 0.112 bit/pixel, 25 Кадр/с
Аудио: 48.0 kHz, AC3 Dolby Digital, 2/0 (L,R) ch, ~ 192 kbps
скриншот  скриншот  скриншот  скриншот  скриншот  

Общее
Уникальный идентификатор : 315095615827886422633525556472274350652 (0xED0D354BBB0492D2775FEF8C0755F23C)
Полное имя : D:\Mokyumentari.S01.2022.WEBRip.1080p\Mokyumentari.S01.E01.2022.WEBRip.1080p.mkv
Формат : Matroska
Версия формата : Version 4
Размер файла : 667 Мбайт
Продолжительность : 20 м. 17 с.
Режим общего битрейта : Переменный
Общий поток : 4 596 Кбит/сек
Название фильма : Mokyumentari.S01.E01.2022.WEBRip.1080p
Дата кодирования : UTC 2022-06-08 21:07:05
Программа кодирования : mkvmerge v68.0.0 ('The Curtain') 64-bit
Библиотека кодирования : libebml v1.4.2 + libmatroska v1.6.4
Attachments : poster.jpg

Видео
Идентификатор : 1
Формат : AVC
Формат/Информация : Advanced Video Codec
Профиль формата : High@L4.1
Настройки формата : CABAC / 2 Ref Frames
Параметр CABAC формата : Да
Параметр RefFrames формата : 2 кадра
Идентификатор кодека : V_MPEG4/ISO/AVC
Продолжительность : 20 м. 17 с.
Вид битрейта : Переменный
Битрейт : 4 399 Кбит/сек
Максимальный битрейт : 4 500 Кбит/сек
Ширина : 1 920 пикселей
Высота : 816 пикселей
Соотношение сторон : 2,35:1
Режим частоты кадров : Постоянный
Частота кадров : 25,000 кадров/сек
Цветовое пространство : YUV
Субдискретизация насыщенности : 4:2:0
Битовая глубина : 8 бит
Тип развёртки : Прогрессивная
Бит/(Пиксели*Кадры) : 0.112
Размер потока : 638 Мбайт (96%)
Default : Да
Forced : Нет
Цветовой диапазон : Limited
Основные цвета : BT.709
Характеристики трансфера : BT.709

Аудио
Идентификатор : 2
Формат : AC-3
Формат/Информация : Audio Coding 3
Коммерческое название : Dolby Digital
Идентификатор кодека : A_AC3
Продолжительность : 20 м. 17 с.
Вид битрейта : Постоянный
Битрейт : 192 Кбит/сек
Каналы : 2 канала
Channel layout : L R
Частота : 48,0 КГц
Частота кадров : 31,250 кадров/сек (1536 SPF)
Метод сжатия : С потерями
Задержка видео : -120 мс.
Размер потока : 27,9 Мбайт (4%)
Service kind : Complete Main
Default : Да
Forced : Нет

Внимание! Раздача ведётся путём добавления новых серий; при каждом добавлении создаётся новый торрент.
Чтобы начать докачку новой серии, пользователям необходимо сделать следующее:
1. Остановить скачивание;
2. Удалить старый торрент у себя из клиента (старые серии удалять не надо);
3. Скачать новый торрент и запустить его у себя в клиенте вместо старого, при этом указать клиенту путь в старую папку куда и должно происходить скачивание новых серий. Ваш клиент при этом должен произвести хеширование (проверку) старой папки и будет докачивать только те серии, которых у вас ещё нет. Старые серии при этом не удаляются, а продолжают раздаваться! Eсли вы уже удалили старые серии, то предотвратить повторную закачку старых серий можно, отжав галочку в соответствующих местах при запуске нового торрента.
pb.wtf



Скачать Мокьюментари через торрент https://i120.fastpic.org/big/2022/0608/62/f44ed7ea383d66df9a47b0f02afdaf62.jpg Скачать, смотреть онлайн Мокьюментари бесплантно в хорошем качестве Описание: Юлия Зайцева с детства мечтает о мировом признании, вот только с ролями ей никак не везет — девушке предлагают сниматься только в ... 7.3 10 10
Торрент: Зарегистрирован [2022-06-23 16:59] · скачан: 5 раз
Статус: √ проверено
Размер: 4.64 GB
Как cкачать? Как скачать Мокьюментари через торрент | UTorrent

% Раздел Тема Автор DL S | L
TNT serials [ 1.88 GB ] Мокьюментари / Сезон: 1 / Серии: 1-6 из 8 [2022 WEBRip] bober100 Скачать
9 | 0

28-11-2019 20:33  

Отключить всю рекламу на сайте

    Дорогой пользователь! Огромная просьба, поблагодарите релизера, оцените раздачу и оставьте свои комментарий, если Вы скачали Мокьюментари через торрент бесплатно!
    Комментировать посты могут только пользователи прошедшие не сложную регистрацию
    Показать сообщения:    

    Мокьюментари через торрент
    Скачать бесплатно Мокьюментари
    Мокьюментари скачать торрент
    Мокьюментари смотреть онлайн
    Cкачать фильм Мокьюментари бесплатно
    Мокьюментари скачать торрент в хорошем качестве
    Мокьюментари смотреть онлайн бесплатно в хорошем качестве


    Вы не можете начинать темы
    Вы не можете отвечать на сообщения
    Вы не можете редактировать свои сообщения
    Вы не можете удалять свои сообщения
    Вы не можете голосовать в опросах
    Вы не можете прикреплять файлы к сообщениям
    Вы можете скачивать файлы