Всегда рабочее зеркало без VPN и Proxy просто перед .vidak.icu напиши любое слово или цифру, Пример http://xd5z.vidak.icu

Лицензия

MVO

1 сезон

1

1 сезон

iTunes

1 сезон

13

1 сезон

Deluxe

pack

Рекомендуем

Repack

30

ВАЖНО

RePack

MK11

RePack

jed

RePack

fifa19

RePack

RDR2

RePack

NEED FOR SPEED™ PAYBACK

Кинопоиск HD

6 сезон

 Острые козырьки 6 сезон

Все сериалы

все сериалы на PB.wtf

RePack

FAR CRY 5
  
Magnet ссылка

Мокьюментари / Сезон: 1 / Серии: 1-8 из 8 (Олег Витвицки) [2022, Комедия, драма, WEBRip] pb.wtf

Мокьюментари через торрент pb.wtf

Размер: 2.54 GB | Добавлен: 1 мес. 16 д. назад | Торрент скачан:20 раз
Смотреть онлайн Мокьюментари | Скачать    Ребята, помогите собрать деньги на оплату серверов!!!

09-06-2022 03:24 Мокьюментари Скачать торрент  

Мокьюментари
Год выпуска: 2022
Страна: Россия
Жанр: Комедия, драма
Продолжительность: ~ 00:25:00
Перевод: Не требуется

Режиссер: Олег Витвицки



В ролях: Юлия Волкова, Михаил Тройник, Софья Шуткина, Виталий Коваленко, Ирина Воронова, Павел Майков, Игорь Ветров, Елена Панджариди, Марина Барсукова, Ася Калинина, Сергей Комаров, Николай Аверюшкин, Елена Анисимова, Андрей Бодренков, Лерика Витвицки, Валерия Гладилина, Станислав Бондаренко, Виктор Васильев, Александр Вдовин, Олег Куксовский, Максим Логинов, Александр Мехряков, Александр Назаров, Кирилл Назаров, Анастасия Тодореску, Александра Тулинова, Сергей Федюшкин, Александр Хатников, Людмила Чурсина, Андрей Филиппак, Карен Оганесян, Екатерина Рокотова, Марина Вольхина, Александра Новикова, Кирилл Плотников, Анна Соколова, Артур Суворов

Описание: Юлия Зайцева с детства мечтает о мировом признании, вот только с ролями ей никак не везет — девушке предлагают сниматься только в дешевых мыльных сериалах. Она искренне убеждена, что ее талант достоин «Оскара», но как именитым режиссерам обратить на нее внимание? В своих бедах Юлия винит непутевого актерского агента Мишу, который с ней работает много лет и пытается найти для нее стоящую роль.

Качество: WEBRip
Формат: AVI

Видео: XviD, ~ 1750 Кбит/с, 720x304, 25 кадр/с
Аудио: 48.0 kHz, AC3 Dolby Digital, 2/0 (L,R) ch, ~ 192 kbps
скриншот  скриншот  скриншот  скриншот  

Общее
Полное имя : C:Mokyumentari.2022.WEB-DLRip.25Kuzmich\Mokyumentari.e01.WEB-DLRip.25Kuzmich.avi
Формат : AVI
Формат/Информация : Audio Video Interleave
Размер файла : 287 Мбайт
Продолжительность : 20 м. 17 с.
Общий поток : 1 978 Кбит/сек
Программа кодирования : VirtualDubMod 1.5.10.3 | www.virtualdub-fr.org || (build 2550/release)
Библиотека кодирования : VirtualDubMod build 2550/release

Видео
Идентификатор : 0
Формат : MPEG-4 Visual
Профиль формата : Advanced [email protected]
Настройки формата : BVOP1
Параметр BVOP формата : 1
Параметр QPel формата : Нет
Параметр GMC формата : Без точки перехода
Параметр матрицы формата : Default (MPEG)
Идентификатор кодека : XVID
Идентификатор кодека/Подсказка : XviD
Продолжительность : 20 м. 17 с.
Битрейт : 1 776 Кбит/сек
Ширина : 720 пикселей
Высота : 304 пикселя
Соотношение сторон : 2,35:1
Частота кадров : 25,000 кадров/сек
Цветовое пространство : YUV
Субдискретизация насыщенности : 4:2:0
Битовая глубина : 8 бит
Тип развёртки : Прогрессивная
Метод сжатия : С потерями
Бит/(Пиксели*Кадры) : 0.325
Размер потока : 258 Мбайт (90%)
Библиотека кодирования : XviD 73

Аудио
Идентификатор : 1
Формат : AC-3
Формат/Информация : Audio Coding 3
Коммерческое название : Dolby Digital
Идентификатор кодека : 2000
Продолжительность : 20 м. 17 с.
Вид битрейта : Постоянный
Битрейт : 192 Кбит/сек
Каналы : 2 канала
Channel layout : L R
Частота : 48,0 КГц
Частота кадров : 31,250 кадров/сек (1536 SPF)
Метод сжатия : С потерями
Размер потока : 27,9 Мбайт (10%)
Выравнивание : Разделение по промежуткам
Продолжительность промежутка : 40 мс. (1,00 видеокадр)
Время предзагрузки промежутка : 500 мс.
Service kind : Complete Main

Внимание! Раздача ведётся путём добавления новых серий; при каждом добавлении создаётся новый торрент.
Чтобы начать докачку новой серии, пользователям необходимо сделать следующее:
1. Остановить скачивание;
2. Удалить старый торрент у себя из клиента (старые серии удалять не надо);
3. Скачать новый торрент и запустить его у себя в клиенте вместо старого, при этом указать клиенту путь в старую папку куда и должно происходить скачивание новых серий. Ваш клиент при этом должен произвести хеширование (проверку) старой папки и будет докачивать только те серии, которых у вас ещё нет. Старые серии при этом не удаляются, а продолжают раздаваться! Eсли вы уже удалили старые серии, то предотвратить повторную закачку старых серий можно, отжав галочку в соответствующих местах при запуске нового торрента.
pb.wtf



Скачать Мокьюментари через торрент https://i120.fastpic.org/big/2022/0608/62/f44ed7ea383d66df9a47b0f02afdaf62.jpg Скачать, смотреть онлайн Мокьюментари бесплантно в хорошем качестве Описание: Юлия Зайцева с детства мечтает о мировом признании, вот только с ролями ей никак не везет — девушке предлагают сниматься только в ... 7 10 6
Торрент: Зарегистрирован [2022-06-30 00:36] · скачан: 20 раз
Статус: √ проверено
Размер: 2.54 GB
Как cкачать? Как скачать Мокьюментари через торрент | UTorrent

% Раздел Тема Автор DL S | L
TNT serials [ 2.4 GB ] Мокьюментари / Сезон: 1 / Серии: 1-8 из 8 [2022 WEBRip-AVC] bober100 Скачать
1 | 0
TNT serials [ 6.17 GB ] Мокьюментари / Сезон: 1 / Серии: 1-8 из 8 [2022 WEBRip 1080p] bober100 Скачать
2 | 0


Последний раз редактировалось: bober100 (2022-06-30 00:36), всего редактировалось 6 раз(а)

28-11-2019 20:33  

Отключить вcю реклaмy на сайте

    Дорогой пользователь! Огромная просьба, поблагодарите релизера, оцените раздачу и оставьте свои комментарий, если Вы скачали Мокьюментари через торрент бесплатно!
    Комментировать посты могут только пользователи прошедшие не сложную регистрацию
    Показать сообщения:    

    Мокьюментари через торрент
    Скачать бесплатно Мокьюментари
    Мокьюментари скачать торрент
    Мокьюментари смотреть онлайн
    Cкачать фильм Мокьюментари бесплатно
    Мокьюментари скачать торрент в хорошем качестве
    Мокьюментари смотреть онлайн бесплатно в хорошем качестве


    Вы не можете начинать темы
    Вы не можете отвечать на сообщения
    Вы не можете редактировать свои сообщения
    Вы не можете удалять свои сообщения
    Вы не можете голосовать в опросах
    Вы не можете прикреплять файлы к сообщениям
    Вы можете скачивать файлы