Всегда рабочее зеркало без VPN и Proxy просто перед .vidak.icu напиши любое слово или цифру, Пример http://mvmf.vidak.icu

MVO

Лицензия

1 сезон

1

1 сезон

iTunes

1 сезон

13

1 сезон

Deluxe

pack

Рекомендуем

Пиратка

30

ВАЖНО

RePack

MK11

RePack

jed

RePack

fifa19

RePack

RDR2

RePack

NEED FOR SPEED™ PAYBACK

Кинопоиск HD

6 сезон

 Острые козырьки 6 сезон

Все сериалы

все сериалы на PB.wtf

RePack

FAR CRY 5

Anonymous, нам критически не хватает 2100 руб. на оплату серверов и переферии за МАЙ, помоги нам пожалуйста, вся надежда только на тебя. В благодарность мы отключим тебе всю рекламу на сайте!

×
  
Magnet ссылка

Семейка Крудс / The Croods (Кирк де Микко, Крис Сандерс) [2013 г., мультфильм, фэнтези, комедия, приключения, BDRip 720p / 60 FPS, Дубляж] от R.G. HD-Films pb.wtf

Семейка Крудс через торрент pb.wtf

Качают: 1 [ 0 KB/s ]
Размер: 3.5 GB | Добавлен: 19 д. назад | Торрент скачан:10 раз
Смотреть онлайн Семейка Крудс | Скачать    Ребята, помогите собрать деньги на оплату серверов!!!

09-06-2022 08:02 Семейка Крудс Скачать торрент  

Семейка Крудс / The Croods
Год выпуска: 2013
Страна: США
Жанр: мультфильм, фэнтези, комедия, приключения
Продолжительность: 01:38:30
Перевод: Дубляж
Субтитры: Русские, украинские, английские

Режиссер: Кирк де Микко, Крис Сандерс

Бюджет: $135 000 000
Премьера в мире: 15 февраля 2013

rating

В ролях: Николас Кейдж, Эмма Стоун, Райан Рейнольдс, Кэтрин Кинер, Клорис Личмен, Кларк Дьюк, Крис Сандерс

Описание: Землетрясение уничтожило дом доисторической семьи, и теперь Крудсам придётся искать другое пристанище. А вокруг новый и опасный мир! Им на помощь приходит молодой кочевник Малой, передовые взгляды которого наталкиваются на консервативность главы семьи Груга. Но только вместе они смогут выжить и достичь своей цели…


Качество: BDRip 720p / 60 FPS
Формат: MKV
Видео кодек: H.264
Аудио кодек: AC3
Видео: x264, 1280 x 544 ( 2,35:1 ), 4702 kbps, 60,000 fps, ( 0.113 bpp)
Аудио#1: Русский, AC-3, 48.0 KHz, 6 ch, 384 Kbps
Релиз от: Автор рипа: slaventi-69
x264 [info]: profile High, level 4.1
x264 [info]: frame I:1311 Avg QP:16.30 size: 86550
x264 [info]: frame P:81585 Avg QP:17.25 size: 21225
x264 [info]: frame B:271760 Avg QP:20.12 size: 5994
x264 [info]: consecutive B-frames: 1.6% 2.8% 7.2% 15.3% 58.3% 14.8%

Общее
Уникальный идентификатор : 273040122761949600338450460825153460844 (0xCD699D667557584F379FF9E6A2885A6C)
Полное имя : G:\60 FPS\The.Croods.(2013).BDRip.720p.(60 Fps).mkv
Формат : Matroska
Версия формата : Version 4
Размер файла : 3,50 Гбайт
Продолжительность : 1 ч. 38 м.
Общий поток : 5090 Кбит/сек
Название фильма : Семейка Крудс / The Croods (2013) BDRip 720p (60 Fps)
Дата кодирования : UTC 2022-06-09 07:41:14
Программа кодирования : mkvmerge v25.0.0 ('Prog Noir') 64-bit
Библиотека кодирования : libebml v1.3.6 + libmatroska v1.4.9

Видео
Идентификатор : 1
Формат : AVC
Формат/Информация : Advanced Video Codec
Профиль формата : High@L4.1
Настройки формата : CABAC / 9 Ref Frames
Параметр CABAC формата : Да
Параметр RefFrames формата : 9 кадров
Идентификатор кодека : V_MPEG4/ISO/AVC
Продолжительность : 1 ч. 38 м.
Битрейт : 4702 Кбит/сек
Ширина : 1280 пикселей
Высота : 544 пикселя
Соотношение сторон : 2,35:1
Режим частоты кадров : Постоянный
Частота кадров : 60,000 кадров/сек
Цветовое пространство : YUV
Субдискретизация насыщенности : 4:2:0
Битовая глубина : 8 бит
Тип развёртки : Прогрессивная
Бит/(Пиксели*Кадры) : 0.113
Размер потока : 3,24 Гбайт (92%)
Заголовок : slaventi-69 ( R.G. HD-Films | 60 fps )
Библиотека кодирования : x264 core 130 r2273 b3065e6
Настройки программы : cabac=1 / ref=9 / deblock=1:-2:-2 / analyse=0x3:0x133 / me=umh / subme=9 / psy=1 / psy_rd=1.00:0.00 / mixed_ref=1 / me_range=32 / chroma_me=1 / trellis=2 / 8x8dct=1 / cqm=0 / deadzone=21,11 / fast_pskip=0 / chroma_qp_offset=-2 / threads=8 / lookahead_threads=4 / sliced_threads=0 / nr=0 / decimate=1 / interlaced=0 / bluray_compat=0 / constrained_intra=0 / bframes=5 / b_pyramid=2 / b_adapt=2 / b_bias=0 / direct=1 / weightb=1 / open_gop=0 / weightp=2 / keyint=600 / keyint_min=23 / scenecut=40 / intra_refresh=0 / rc=crf / mbtree=0 / crf=16.7 / qcomp=0.60 / qpmin=0 / qpmax=69 / qpstep=4 / ip_ratio=1.40 / pb_ratio=1.30 / aq=1:1.00
Язык : English
Default : Да
Forced : Нет

Аудио
Идентификатор : 2
Формат : AC-3
Формат/Информация : Audio Coding 3
Коммерческое название : Dolby Digital
Идентификатор кодека : A_AC3
Продолжительность : 1 ч. 38 м.
Вид битрейта : Постоянный
Битрейт : 384 Кбит/сек
Каналы : 6 каналов
Channel layout : L R C LFE Ls Rs
Частота : 48,0 КГц
Частота кадров : 31,250 кадров/сек (1536 SPF)
Битовая глубина : 16 бит
Метод сжатия : С потерями
Размер потока : 271 Мбайт (8%)
Заголовок : Dub
Язык : Russian
ServiceKind/String : Complete Main
Default : Да
Forced : Нет

Текст #1
Идентификатор : 3
Формат : UTF-8
Идентификатор кодека : S_TEXT/UTF8
Идентификатор кодека/Информация : UTF-8 Plain Text
Продолжительность : 1 ч. 37 м.
Битрейт : 59 бит/сек
ElementCount : 1023
Размер потока : 42,5 Кбайт (0%)
Заголовок : SRT, Full
Язык : Russian
Default : Нет
Forced : Нет

Текст #2
Идентификатор : 4
Формат : UTF-8
Идентификатор кодека : S_TEXT/UTF8
Идентификатор кодека/Информация : UTF-8 Plain Text
Продолжительность : 1 ч. 37 м.
Битрейт : 61 бит/сек
ElementCount : 1022
Размер потока : 43,9 Кбайт (0%)
Заголовок : SRT, Full
Язык : Ukrainian
Default : Нет
Forced : Нет

Текст #3
Идентификатор : 5
Формат : UTF-8
Идентификатор кодека : S_TEXT/UTF8
Идентификатор кодека/Информация : UTF-8 Plain Text
Продолжительность : 1 ч. 28 м.
Битрейт : 39 бит/сек
ElementCount : 1021
Размер потока : 25,5 Кбайт (0%)
Заголовок : SRT, Full
Язык : English
Default : Нет
Forced : Нет

Текст #4
Идентификатор : 6
Формат : UTF-8
Идентификатор кодека : S_TEXT/UTF8
Идентификатор кодека/Информация : UTF-8 Plain Text
Продолжительность : 1 ч. 38 м.
Битрейт : 49 бит/сек
ElementCount : 1669
Размер потока : 35,7 Кбайт (0%)
Заголовок : SRT, (SDH)
Язык : English
Default : Нет
Forced : Нет

Меню
00:00:00.000 : en:Chapter 1
00:02:34.988 : en:Chapter 2
00:04:51.750 : en:Chapter 3
00:09:01.249 : en:Chapter 4
00:12:21.115 : en:Chapter 5
00:14:04.802 : en:Chapter 6
00:18:33.029 : en:Chapter 7
00:21:56.982 : en:Chapter 8
00:23:24.737 : en:Chapter 9
00:26:49.775 : en:Chapter 10
00:28:37.132 : en:Chapter 11
00:30:25.657 : en:Chapter 12
00:32:48.633 : en:Chapter 13
00:36:03.370 : en:Chapter 14
00:38:33.561 : en:Chapter 15
00:41:34.534 : en:Chapter 16
00:44:38.843 : en:Chapter 17
00:48:02.630 : en:Chapter 18
00:52:10.961 : en:Chapter 19
00:55:17.481 : en:Chapter 20
01:00:14.778 : en:Chapter 21
01:03:58.084 : en:Chapter 22
01:05:48.736 : en:Chapter 23
01:08:44.037 : en:Chapter 24
01:10:47.285 : en:Chapter 25
01:12:37.144 : en:Chapter 26
01:14:01.646 : en:Chapter 27
01:19:48.575 : en:Chapter 28
01:23:09.860 : en:Chapter 29
01:25:16.737 : en:Chapter 30
01:28:04.321 : en:Chapter 31
01:30:02.230 : en:Chapter 32

Просьба к переливающим на другие сайты, в оформлении указывайте пожалуйста авторство группы R.G. HD-Films pb.wtf



Скачать Семейка Крудс через торрент http://i60.fastpic.ru/big/2013/0918/4b/b701cfb1c86c01fe511f4eea15926f4b.png Скачать, смотреть онлайн Семейка Крудс бесплантно в хорошем качестве Описание: Землетрясение уничтожило дом доисторической семьи, и теперь Крудсам придётся искать другое пристанище. А вокруг новый и опасный ... 10 10 3
Info! Золотая раздача, скачанное не засчитывается.
Торрент: Зарегистрирован [2022-06-09 08:02] · скачан: 10 раз
Статус: √ проверено
Размер: 3.5 GB
Как cкачать? Как скачать Семейка Крудс через торрент | UTorrent

% Раздел Тема Автор DL S | L
3D Мультфильмы [ 5.19 GB ] Семейка Крудс: Новоселье в 3D / The Croods: A New Age in 3D [2020 Мультфильм BDRip 1080p ] Анаглиф от R.G. HD-Films slaventi-69 Скачать
1 | 0
Мультфильмы (48-60 fps) [ 3.2 GB ] Семейка Крудс: Новоселье / The Croods: A New Age [2020 Мультфильм BDRip 720p / 60 FPS ] от R.G. HD-Films slaventi-69 Скачать
10 | 1

28-11-2019 20:33  

Отключить всю рекламу на сайте

09-06-2022 09:04 Семейка Крудс Скачать торрент  

Раздача стала золотой благодаря:
михакруг(5000)

Спасибо за Золото.pb.wtf



    Дорогой пользователь! Огромная просьба, поблагодарите релизера, оцените раздачу и оставьте свои комментарий, если Вы скачали Семейка Крудс через торрент бесплатно!
    Комментировать посты могут только пользователи прошедшие не сложную регистрацию
    Показать сообщения:    

    Семейка Крудс через торрент
    Скачать бесплатно Семейка Крудс
    Семейка Крудс скачать торрент
    Семейка Крудс смотреть онлайн
    Cкачать фильм Семейка Крудс бесплатно
    Семейка Крудс скачать торрент в хорошем качестве
    Семейка Крудс смотреть онлайн бесплатно в хорошем качестве


    Вы не можете начинать темы
    Вы не можете отвечать на сообщения
    Вы не можете редактировать свои сообщения
    Вы не можете удалять свои сообщения
    Вы не можете голосовать в опросах
    Вы не можете прикреплять файлы к сообщениям
    Вы можете скачивать файлы