Всегда рабочее зеркало без VPN и Proxy просто перед .vidak.icu напиши любое слово или цифру, Пример http://j3ub.vidak.icu

MVO

Лицензия

1 сезон

1

1 сезон

iTunes

1 сезон

13

1 сезон

Deluxe

pack

Рекомендуем

Пиратка

30

ВАЖНО

RePack

MK11

RePack

jed

RePack

fifa19

RePack

RDR2

RePack

NEED FOR SPEED™ PAYBACK

Кинопоиск HD

6 сезон

 Острые козырьки 6 сезон

Все сериалы

все сериалы на PB.wtf

RePack

FAR CRY 5

Anonymous, нам критически не хватает 2100 руб. на оплату серверов и переферии за МАЙ, помоги нам пожалуйста, вся надежда только на тебя. В благодарность мы отключим тебе всю рекламу на сайте!

×
  
Magnet ссылка

Семейка Крудс: Новоселье / The Croods: A New Age (Джоэль Кроуфорд) [2020 г., Мультфильм, фэнтези, комедия, приключения, BDRip 720p / 60 FPS, Дубляж] от R.G. HD-Films pb.wtf

Семейка Крудс: Новоселье через торрент pb.wtf

Раздают: 11 [ 0 KB/s ]
Размер: 3.2 GB | Добавлен: 17 д. назад | Торрент скачан:71 раз
Смотреть онлайн Семейка Крудс: Новоселье | Скачать    Ребята, помогите собрать деньги на оплату серверов!!!

09-06-2022 09:01 Семейка Крудс: Новоселье Скачать торрент  

Семейка Крудс: Новоселье / The Croods: A New Age
Год выпуска: 2020
Страна: США
Жанр: Мультфильм, фэнтези, комедия, приключения
Продолжительность: 01:35:08
Перевод: Дубляж
Субтитры: Русские (Forced вшитые, full), английские

Режиссер: Джоэль Кроуфорд

Бюджет: $65 000 000
Премьера в мире: 25 ноября 2020

rating

В ролях: Николас Кейдж, Эмма Стоун, Райан Рейнольдс, Кэтрин Кинер, Клорис Личмен, Кларк Дьюк, Лесли Манн, Питер Динклэйдж, Келли Мари Трэн, Кейли Кроуфорд

Описание: Такие харизматичные герои как члены клана Крудс просто не в силах усидеть на месте. Они смело идут навстречу самым головокружительным приключениям и готовы ответить непредсказуемостью и находчивостью на любой вызов судьбы.


Качество: BDRip 720p / 60 FPS
Формат: MKV
Видео кодек: H.264
Аудио кодек: AC3
Видео: x264, 1280 x 544 ( 2,35:1 ), 4421 kbps, 60,000 fps, ( 0.106 bpp)
Аудио#1: Русский, AC-3, 48.0 KHz, 6 ch, 384 Kbps
Релиз от: Автор рипа: slaventi-69
x264 [info]: profile High, level 4.1
x264 [info]: frame I:1634 Avg QP:16.28 size: 94936
x264 [info]: frame P:79202 Avg QP:17.89 size: 20535
x264 [info]: frame B:261692 Avg QP:20.85 size: 5247
x264 [info]: consecutive B-frames: 2.2% 2.3% 6.1% 19.7% 50.5% 19.2%


Общее
Уникальный идентификатор : 55005886047724115302601920944877900390 (0x2961BF90F62278E006E38350EC289266)
Полное имя : G:\60 FPS\The.Croods_A.New.Age.(2020).BDRip.720p.(60 Fps).mkv
Формат : Matroska
Версия формата : Version 4
Размер файла : 3,20 Гбайт
Продолжительность : 1 ч. 35 м.
Общий поток : 4809 Кбит/сек
Название фильма : Семейка Крудс: Новоселье / The Croods: A New Age (2020) BDRip 720p (60 Fps)
Дата кодирования : UTC 2022-06-09 08:28:08
Программа кодирования : mkvmerge v25.0.0 ('Prog Noir') 64-bit
Библиотека кодирования : libebml v1.3.6 + libmatroska v1.4.9

Видео
Идентификатор : 1
Формат : AVC
Формат/Информация : Advanced Video Codec
Профиль формата : High@L4.1
Настройки формата : CABAC / 9 Ref Frames
Параметр CABAC формата : Да
Параметр RefFrames формата : 9 кадров
Идентификатор кодека : V_MPEG4/ISO/AVC
Продолжительность : 1 ч. 35 м.
Битрейт : 4421 Кбит/сек
Ширина : 1280 пикселей
Высота : 544 пикселя
Соотношение сторон : 2,35:1
Режим частоты кадров : Постоянный
Частота кадров : 60,000 кадров/сек
Цветовое пространство : YUV
Субдискретизация насыщенности : 4:2:0
Битовая глубина : 8 бит
Тип развёртки : Прогрессивная
Бит/(Пиксели*Кадры) : 0.106
Размер потока : 2,94 Гбайт (92%)
Заголовок : slaventi-69 ( R.G. HD-Films | 60 fps )
Библиотека кодирования : x264 core 130 r2273 b3065e6
Настройки программы : cabac=1 / ref=9 / deblock=1:-3:-3 / analyse=0x3:0x133 / me=umh / subme=9 / psy=1 / psy_rd=1.00:0.00 / mixed_ref=1 / me_range=32 / chroma_me=1 / trellis=2 / 8x8dct=1 / cqm=0 / deadzone=21,11 / fast_pskip=0 / chroma_qp_offset=-2 / threads=8 / lookahead_threads=4 / sliced_threads=0 / nr=0 / decimate=1 / interlaced=0 / bluray_compat=0 / constrained_intra=0 / bframes=5 / b_pyramid=2 / b_adapt=2 / b_bias=0 / direct=1 / weightb=1 / open_gop=0 / weightp=2 / keyint=600 / keyint_min=23 / scenecut=40 / intra_refresh=0 / rc=crf / mbtree=0 / crf=16.8 / qcomp=0.60 / qpmin=0 / qpmax=69 / qpstep=4 / ip_ratio=1.40 / pb_ratio=1.30 / aq=1:1.00
Язык : English
Default : Да
Forced : Нет

Аудио
Идентификатор : 2
Формат : AC-3
Формат/Информация : Audio Coding 3
Коммерческое название : Dolby Digital
Идентификатор кодека : A_AC3
Продолжительность : 1 ч. 35 м.
Вид битрейта : Постоянный
Битрейт : 384 Кбит/сек
Каналы : 6 каналов
Channel layout : L R C LFE Ls Rs
Частота : 48,0 КГц
Частота кадров : 31,250 кадров/сек (1536 SPF)
Битовая глубина : 16 бит
Метод сжатия : С потерями
Размер потока : 261 Мбайт (8%)
Заголовок : Dub
Язык : Russian
ServiceKind/String : Complete Main
Default : Да
Forced : Нет

Текст #1
Идентификатор : 3
Формат : UTF-8
Идентификатор кодека : S_TEXT/UTF8
Идентификатор кодека/Информация : UTF-8 Plain Text
Продолжительность : 14 м. 34 с.
Битрейт : 4 бит/сек
ElementCount : 15
Размер потока : 500 байт (0%)
Заголовок : Forced [For HDRezka Studio]
Язык : Russian
Default : Нет
Forced : Нет

Текст #2
Идентификатор : 4
Формат : UTF-8
Идентификатор кодека : S_TEXT/UTF8
Идентификатор кодека/Информация : UTF-8 Plain Text
Продолжительность : 1 ч. 26 м.
Битрейт : 114 бит/сек
ElementCount : 1692
Размер потока : 72,4 Кбайт (0%)
Заголовок : Full
Язык : Russian
Default : Нет
Forced : Нет

Текст #3
Идентификатор : 5
Формат : UTF-8
Идентификатор кодека : S_TEXT/UTF8
Идентификатор кодека/Информация : UTF-8 Plain Text
Продолжительность : 1 ч. 34 м.
Битрейт : 70 бит/сек
ElementCount : 1709
Размер потока : 48,5 Кбайт (0%)
Заголовок : Full
Язык : English
Default : Нет
Forced : Нет

Текст #4
Идентификатор : 6
Формат : UTF-8
Идентификатор кодека : S_TEXT/UTF8
Идентификатор кодека/Информация : UTF-8 Plain Text
Продолжительность : 1 ч. 34 м.
Битрейт : 82 бит/сек
ElementCount : 1997
Размер потока : 57,0 Кбайт (0%)
Заголовок : SDH
Язык : English
Default : Нет
Forced : Нет

Меню
00:00:00.000 : en:Chapter 1
00:06:36.563 : en:Chapter 2
00:11:17.760 : en:Chapter 3
00:18:01.289 : en:Chapter 4
00:21:05.389 : en:Chapter 5
00:25:45.085 : en:Chapter 6
00:29:01.990 : en:Chapter 7
00:34:01.706 : en:Chapter 8
00:37:10.603 : en:Chapter 9
00:43:43.037 : en:Chapter 10
00:48:33.786 : en:Chapter 11
00:52:16.675 : en:Chapter 12
00:55:48.095 : en:Chapter 13
00:59:50.128 : en:Chapter 14
01:05:28.758 : en:Chapter 15
01:09:06.476 : en:Chapter 16
01:15:03.499 : en:Chapter 17
01:21:30.719 : en:Chapter 18
01:25:12.691 : en:Chapter 19
01:27:39.129 : en:Chapter 20

Просьба к переливающим на другие сайты, в оформлении указывайте пожалуйста авторство группы R.G. HD-Films pb.wtf



Скачать Семейка Крудс: Новоселье через торрент https://i114.fastpic.ru/big/2021/0103/c4/b39bbe6e72412309b95f828d027f3bc4.jpg Скачать, смотреть онлайн Семейка Крудс: Новоселье бесплантно в хорошем качестве Описание: Такие харизматичные герои как члены клана Крудс просто не в силах усидеть на месте. Они смело идут навстречу самым ... 8.7 10 7
Торрент: Зарегистрирован [2022-06-09 09:01] · скачан: 71 раз
Статус: √ проверено
Размер: 3.2 GB
Как cкачать? Как скачать Семейка Крудс: Новоселье через торрент | UTorrent

% Раздел Тема Автор DL S | L
3D Мультфильмы [ 5.19 GB ] Семейка Крудс: Новоселье в 3D / The Croods: A New Age in 3D [2020 Мультфильм BDRip 1080p ] Анаглиф от R.G. HD-Films slaventi-69 Скачать
1 | 0

28-11-2019 20:33  

Отключить всю рекламу на сайте

09-06-2022 18:11 Семейка Крудс: Новоселье Скачать торрент  


Спасибо за отличный рейтинг и оценку за Rip.pb.wtf



    Дорогой пользователь! Огромная просьба, поблагодарите релизера, оцените раздачу и оставьте свои комментарий, если Вы скачали Семейка Крудс: Новоселье через торрент бесплатно!
    Комментировать посты могут только пользователи прошедшие не сложную регистрацию
    Показать сообщения:    

    Семейка Крудс: Новоселье через торрент
    Скачать бесплатно Семейка Крудс: Новоселье
    Семейка Крудс: Новоселье скачать торрент
    Семейка Крудс: Новоселье смотреть онлайн
    Cкачать фильм Семейка Крудс: Новоселье бесплатно
    Семейка Крудс: Новоселье скачать торрент в хорошем качестве
    Семейка Крудс: Новоселье смотреть онлайн бесплатно в хорошем качестве


    Вы не можете начинать темы
    Вы не можете отвечать на сообщения
    Вы не можете редактировать свои сообщения
    Вы не можете удалять свои сообщения
    Вы не можете голосовать в опросах
    Вы не можете прикреплять файлы к сообщениям
    Вы можете скачивать файлы