Аватар: Путь воды

Лицензия

В те дни

1 сезон

скачать смотреть онлайн John Wick Chapter 4

MVO

Крик 6

Дубляж

13 клиническая

3 сезон

Восстание зловещих мертвецов

Дубляж

Одни из нас

Дубляж

Dead Island 2 Gold

Gold

Deluxe RUS

Deluxe RUS

pack

Рекомендуем

ВАЖНО

ВАЖНО

30

Repack

The Lord of the Rings: Gollum

Лицензия

jed

RePack

nioh2

RePack

RDR2

RePack

NEED FOR SPEED™ PAYBACK

RePack

скачать торрент

Кинопоиск HD

Острые козырьки 6 сезон

6 сезон

FAR CRY 6

RePack

скачать торрент

Лицензия

скачать торрент

MVO

1

1 сезон

скачать торрент

1 сезон

скачать торрент

Лицензия

  

Холостяк на свадьбе / Le discours (Лоран Тирар) [2020, Комедия, BDRip 1080p] Дубляж [Кинопоиск HD]

Холостяк на свадьбе через торрент pb.wtf

Размер: 9.25 GB | Добавлен: 11 мес. назад | Торрент скачан:113 раз
Смотреть онлайн | Скачать | Поддержите нас   

10-06-2022 03:14 Холостяк на свадьбе Скачать торрент  

Холостяк на свадьбе | Le discours
Год выпуска: 2020
Страна: Франция, Бельгия
Студия: C8, Canal+ [fr], Ciné, Cinécap 3, Cinémage 14, Cinéventure 5, France 2 Cinéma, France Télévision, La Banque Postale Image 13, Le Pacte, les Films sur Mesure, Scope Pictures
Жанр: Комедия
Продолжительность: 01:27:49
Перевод: Дублированный | Кинопоиск HD
Субтитры: Русские (Full), английские

Режиссер: Лоран Тирар

rating

В ролях: Бенжамен Лаверн, Сара Жиродо, Джулия Пьятон, Киан Кожанди, Гилен Лондез, Франсуа Морель, Марилу Оссийу, Сара Суко, Кристоф Монтене, Аделин Д’Эрми

Описание: Заядлого холостяка Адриана родственники просят подготовить торжественный тост к скорой свадьбе сестры. Адриана охватывает паника. Он не любит выступать на публике, но еще больше ненавидит свадьбы. Убежденному браконенавистнику предстоит настоящее испытание, и самое сложное в нем — не превратить свадьбу сестры в семейную разборку, где может достаться всем!

Качество: BDRip 1080p
Формат: MKV

Видео: MPEG-4 AVC, 1920x804, 14.0 Mbit/s, 23.976 fps
Аудио #01: 48 kHz, AC3, 5.1, 448 Kbps | Дублированный | Кинопоиск HD | RUS |
Аудио #02: 48 kHz, AC3, 5.1, 640 Kbps | Оригинал | FRE |
скриншот  скриншот  скриншот  скриншот  скриншот  скриншот  

General
Unique ID : 171782255205480536427724647569041387452 (0x813C0F157A11EAC43C7A4DF7A6DBEFBC)
Complete name : E:Video1Le.Discours.2020.BDRip.1080p.seleZen.mkv
Format : Matroska
Format version : Version 4
File size : 9.25 GiB
Duration : 1 h 27 min
Overall bit rate : 15.1 Mb/s
Movie name : Le Discours 2020 from seleZen
Encoded date : UTC 2022-06-09 18:40:15
Writing application : mkvmerge v59.0.0 ('Shining Star') 64-bit
Writing library : libebml v1.4.2 + libmatroska v1.6.4

Video
ID : 1
Format : AVC
Format/Info : Advanced Video Codec
Format profile : [email protected]
Format settings : CABAC / 5 Ref Frames
Format settings, CABAC : Yes
Format settings, Reference : 5 frames
Codec ID : V_MPEG4/ISO/AVC
Duration : 1 h 27 min
Bit rate : 14.0 Mb/s
Width : 1 920 pixels
Height : 804 pixels
Display aspect ratio : 2.40:1
Frame rate mode : Constant
Frame rate : 23.976 (24000/1001) FPS
Color space : YUV
Chroma subsampling : 4:2:0
Bit depth : 8 bits
Scan type : Progressive
Bits/(Pixel*Frame) : 0.378
Stream size : 8.58 GiB (93%)
Writing library : x264 core 146 -from seleZen
Encoding settings : cabac=1 / ref=5 / deblock=1:-2:-2 / analyse=0x3:0x133 / me=umh / subme=10 / psy=1 / psy_rd=1.03:0.02 / mixed_ref=1 / me_range=32 / chroma_me=1 / trellis=2 / 8x8dct=1 / cqm=0 / deadzone=21,11 / fast_pskip=0 / chroma_qp_offset=-3 / threads=48 / lookahead_threads=6 / sliced_threads=0 / nr=0 / decimate=0 / interlaced=0 / bluray_compat=0 / constrained_intra=0 / bframes=8 / b_pyramid=2 / b_adapt=2 / b_bias=0 / direct=3 / weightb=1 / open_gop=0 / weightp=2 / keyint=240 / keyint_min=23 / scenecut=40 / intra_refresh=0 / rc_lookahead=50 / rc=2pass / mbtree=0 / bitrate=14000 / ratetol=1.0 / qcomp=0.60 / qpmin=0 / qpmax=51 / qpstep=4 / cplxblur=20.0 / qblur=0.5 / vbv_maxrate=50000 / vbv_bufsize=62500 / nal_hrd=none / filler=0 / ip_ratio=1.40 / pb_ratio=1.30 / aq=3:0.80
Language : English
Default : Yes
Forced : No

Audio #1
ID : 2
Format : AC-3
Format/Info : Audio Coding 3
Commercial name : Dolby Digital
Codec ID : A_AC3
Duration : 1 h 27 min
Bit rate mode : Constant
Bit rate : 448 kb/s
Channel(s) : 6 channels
Channel layout : L R C LFE Ls Rs
Sampling rate : 48.0 kHz
Frame rate : 31.250 FPS (1536 SPF)
Compression mode : Lossy
Stream size : 281 MiB (3%)
Title : Дубляж
Language : Russian
Service kind : Complete Main
Default : Yes
Forced : Yes

Audio #2
ID : 3
Format : AC-3
Format/Info : Audio Coding 3
Commercial name : Dolby Digital
Codec ID : A_AC3
Duration : 1 h 27 min
Bit rate mode : Constant
Bit rate : 640 kb/s
Channel(s) : 6 channels
Channel layout : L R C LFE Ls Rs
Sampling rate : 48.0 kHz
Frame rate : 31.250 FPS (1536 SPF)
Compression mode : Lossy
Stream size : 402 MiB (4%)
Title : Original
Language : English
Service kind : Complete Main
Default : No
Forced : No

Text #1
ID : 4
Format : UTF-8
Codec ID : S_TEXT/UTF8
Codec ID/Info : UTF-8 Plain Text
Duration : 1 h 22 min
Bit rate : 156 b/s
Count of elements : 1520
Stream size : 95.0 KiB (0%)
Title : Full
Language : Russian
Default : No
Forced : No

Text #2
ID : 5
Format : UTF-8
Codec ID : S_TEXT/UTF8
Codec ID/Info : UTF-8 Plain Text
Duration : 1 h 21 min
Bit rate : 67 b/s
Count of elements : 1253
Stream size : 40.5 KiB (0%)
Title : Full
Language : English
Default : No
Forced : No

Menu
00:00:00.000 : Chapter 01
00:07:58.728 : Chapter 02
00:14:14.478 : Chapter 03
00:21:10.477 : Chapter 04
00:28:36.589 : Chapter 05
00:35:31.921 : Chapter 06
00:41:43.959 : Chapter 07
00:49:43.522 : Chapter 08
00:56:30.136 : Chapter 09
01:05:27.757 : Chapter 10
01:15:34.571 : Chapter 11
01:22:49.381 : Chapter 12





Скачать Холостяк на свадьбе через торрент https://i116.fastpic.org/big/2021/1017/d8/e698569af2ff69bf5f2e181428d2d1d8.jpg Скачать, смотреть онлайн Холостяк на свадьбе бесплатно в хорошем качестве Описание: Заядлого холостяка Адриана родственники просят подготовить торжественный тост к скорой свадьбе сестры. Адриана охватывает ... 10 10 8
Торрент: Зарегистрирован [2022-06-10 03:14] · скачан: 113 раз
Статус: √ проверено
Размер: 9.25 GB
Как cкачать? Как скачать Холостяк на свадьбе через торрент | UTorrent

% Раздел Тема Автор DL S | L
Фильмы (Blu-ray, BD-Remux, HDDVD) [ 24.09 GB ] Холостяк на свадьбе / Le discours | DUB | BD Remux 1080p bober100 Скачать
1 | 0
Фильмы 2019-2020 [DVDrip, WEB-DLRip, HDrip] (DUB, MVO) [ 1.46 GB ] Холостяк на свадьбе / Le discours | DUB | BDRip bober100 Скачать
1 | 0
Фильмы 2021 [DVDrip, WEB-DLRip, HDrip] (DUB, MVO) [ 1.46 GB ] Холостяк на свадьбе / Le discours | Лицензия | DLRip Twi7ter Скачать
1 | 0
Фильмы 2019-2020 [DVDrip, WEB-DLRip, HDrip] (DUB, MVO) [ 1.59 GB ] Холостяк на свадьбе / Le discours | DUB | DLRip-AVC Lithuania Скачать
1 | 0
Фильмы (WEB-DL 720p, 1080p) [ 4.05 GB ] Холостяк на свадьбе / Le discours | DUB | 1080p bober100 Скачать
1 | 0

28-11-2019 20:33  


Отключить вcю реклaмy на сайте, в т.ч. и в плеере онлайн просмотра!

    Дорогой пользователь! Огромная просьба, поблагодарите релизера, оцените раздачу и оставьте свои комментарий, если Вы скачали Холостяк на свадьбе через торрент бесплатно!!
    Комментировать посты могут только пользователи прошедшие не сложную регистрацию
    Показать сообщения:    


    Холостяк на свадьбе через торрент
    Скачать бесплатно Холостяк на свадьбе
    Холостяк на свадьбе скачать торрент
    Холостяк на свадьбе смотреть онлайн
    Cкачать фильм Холостяк на свадьбе бесплатно
    Холостяк на свадьбе скачать торрент в хорошем качестве
    Холостяк на свадьбе смотреть онлайн бесплатно в хорошем качестве
    Вы не можете начинать темы
    Вы не можете отвечать на сообщения
    Вы не можете редактировать свои сообщения
    Вы не можете удалять свои сообщения
    Вы не можете голосовать в опросах
    Вы не можете прикреплять файлы к сообщениям
    Вы можете скачивать файлы