Всегда рабочее зеркало без VPN и Proxy просто перед .vidak.icu напиши любое слово или цифру, Пример http://c553.vidak.icu

Лицензия

MVO

1 сезон

1

1 сезон

iTunes

1 сезон

13

1 сезон

Deluxe

pack

Рекомендуем

Repack

30

ВАЖНО

RePack

MK11

RePack

jed

RePack

fifa19

RePack

RDR2

RePack

NEED FOR SPEED™ PAYBACK

Кинопоиск HD

6 сезон

 Острые козырьки 6 сезон

Все сериалы

все сериалы на PB.wtf

RePack

FAR CRY 5
  
Magnet ссылка

Семейка Крудс: Новоселье в 3D / The Croods: A New Age in 3D (Джоэль Кроуфорд) [2020 г., Мультфильм, фэнтези, комедия, приключения, BDRip 1080p, Дубляж] Анаглиф (Дюбуа) от R.G. HD-Films pb.wtf

Семейка Крудс: Новоселье в 3D через торрент pb.wtf

Раздают: 1 [ 0 KB/s ]
Размер: 5.19 GB | Добавлен: 2 мес. 6 д. назад | Торрент скачан:5 раз
Смотреть онлайн Семейка Крудс: Новоселье в 3D | Скачать    Ребята, помогите собрать деньги на оплату серверов!!!

10-06-2022 11:03 Семейка Крудс: Новоселье в 3D Скачать торрент  

Семейка Крудс: Новоселье в 3D / The Croods: A New Age in 3D
Год выпуска: 2020
Страна: США
Жанр: Мультфильм, фэнтези, комедия, приключения
Продолжительность: 01:35:15
Перевод: Дубляж
Субтитры: Русские (Forced вшитые, full), украинские, английские

Режиссер: Джоэль Кроуфорд

Бюджет: $65 000 000
Премьера в мире: 25 ноября 2020

rating

В ролях: Николас Кейдж, Эмма Стоун, Райан Рейнольдс, Кэтрин Кинер, Клорис Личмен, Кларк Дьюк, Лесли Манн, Питер Динклэйдж, Келли Мари Трэн, Кейли Кроуфорд

Описание: Такие харизматичные герои как члены клана Крудс просто не в силах усидеть на месте. Они смело идут навстречу самым головокружительным приключениям и готовы ответить непредсказуемостью и находчивостью на любой вызов судьбы.

Доп. информация: Формат 3D: Анаглиф (Дюбуа)



Качество: BDRip 1080p
Формат: MKV
Видео кодек: H.264
Аудио кодек: AC3
Видео: 1920 x 1080 (16:9), 6520 kbps, 23,976 fps, 0.131 bpp
Аудио#1: Русский / AC3 / 48 KHz / 5.1 ch / 640 Kbps (Дубляж - BD UHD EUR)
Аудио#2: Украинский / AC3 / 48 KHz / 2 ch / 192 Kbps (Дубляж - Line) (моно) (спасибо Hurtom!)
Аудио#3: English / AC3 / 48 KHz / 5.1 ch / 448 Kbps (Original - BD 3D)
Релиз от: Автор рипа: slaventi-69
x264 [info]: profile High, level 4.1
x264 [info]: frame I:1355 Avg QP:12.63 size:176972
x264 [info]: frame P:40663 Avg QP:13.77 size: 60493
x264 [info]: frame B:94996 Avg QP:16.24 size: 20606


Общее
Уникальный идентификатор : 108348080819298219207169400205482057729 (0x518314D1D33C0CB1B4A33D244F5EE001)
Полное имя : G:\60 FPS\TheCroods.ANewAge(2020)3D.(Anaglyph_Dubois).mkv
Формат : Matroska
Версия формата : Version 4
Размер файла : 5,19 Гбайт
Продолжительность : 1 ч. 35 м.
Общий поток : 7803 Кбит/сек
Название фильма : Семейка Крудс: Новоселье / The Croods: A New Age (2020) in 3D (Anaglyph_Dubois)
Дата кодирования : UTC 2022-06-10 10:33:40
Программа кодирования : mkvmerge v25.0.0 ('Prog Noir') 64-bit
Библиотека кодирования : libebml v1.3.6 + libmatroska v1.4.9

Видео
Идентификатор : 1
Формат : AVC
Формат/Информация : Advanced Video Codec
Профиль формата : [email protected]
Настройки формата : CABAC / 4 Ref Frames
Параметр CABAC формата : Да
Параметр RefFrames формата : 4 кадра
Идентификатор кодека : V_MPEG4/ISO/AVC
Продолжительность : 1 ч. 35 м.
Битрейт : 6520 Кбит/сек
Ширина : 1920 пикселей
Высота : 1080 пикселей
Соотношение сторон : 16:9
Режим частоты кадров : Постоянный
Частота кадров : 23,976 кадра/сек
Цветовое пространство : YUV
Субдискретизация насыщенности : 4:2:0
Битовая глубина : 8 бит
Тип развёртки : Прогрессивная
Бит/(Пиксели*Кадры) : 0.131
Размер потока : 4,34 Гбайт (84%)
Заголовок : slaventi-69 ( R.G. HD-Films ) 3Д (Anaglyph_Dubois)
Библиотека кодирования : x264 core 130 r2273 b3065e6
Настройки программы : cabac=1 / ref=4 / deblock=1:-3:-3 / analyse=0x3:0x133 / me=umh / subme=9 / psy=1 / psy_rd=1.00:0.00 / mixed_ref=1 / me_range=32 / chroma_me=1 / trellis=2 / 8x8dct=1 / cqm=0 / deadzone=21,11 / fast_pskip=0 / chroma_qp_offset=-2 / threads=8 / lookahead_threads=4 / sliced_threads=0 / nr=0 / decimate=1 / interlaced=0 / bluray_compat=0 / constrained_intra=0 / bframes=4 / b_pyramid=2 / b_adapt=2 / b_bias=0 / direct=1 / weightb=1 / open_gop=0 / weightp=2 / keyint=600 / keyint_min=23 / scenecut=40 / intra_refresh=0 / rc=crf / mbtree=0 / crf=19.5 / qcomp=0.60 / qpmin=0 / qpmax=69 / qpstep=4 / ip_ratio=1.40 / pb_ratio=1.30 / aq=1:1.00
Язык : English
Default : Да
Forced : Нет

Аудио #1
Идентификатор : 2
Формат : AC-3
Формат/Информация : Audio Coding 3
Коммерческое название : Dolby Digital
Идентификатор кодека : A_AC3
Продолжительность : 1 ч. 35 м.
Вид битрейта : Постоянный
Битрейт : 640 Кбит/сек
Каналы : 6 каналов
Channel layout : L R C LFE Ls Rs
Частота : 48,0 КГц
Частота кадров : 31,250 кадров/сек (1536 SPF)
Битовая глубина : 16 бит
Метод сжатия : С потерями
Размер потока : 436 Мбайт (8%)
Заголовок : Дубляж (BD UHD EUR)
Язык : Russian
ServiceKind/String : Complete Main
Default : Да
Forced : Нет

Аудио #2
Идентификатор : 3
Формат : AC-3
Формат/Информация : Audio Coding 3
Коммерческое название : Dolby Digital
Идентификатор кодека : A_AC3
Продолжительность : 1 ч. 35 м.
Вид битрейта : Постоянный
Битрейт : 192 Кбит/сек
Каналы : 2 канала
Channel layout : L R
Частота : 48,0 КГц
Частота кадров : 31,250 кадров/сек (1536 SPF)
Битовая глубина : 16 бит
Метод сжатия : С потерями
Размер потока : 131 Мбайт (2%)
Заголовок : Дубляж (Line) (моно)
Язык : Ukrainian
ServiceKind/String : Complete Main
Default : Нет
Forced : Нет

Аудио #3
Идентификатор : 4
Формат : AC-3
Формат/Информация : Audio Coding 3
Коммерческое название : Dolby Digital
Идентификатор кодека : A_AC3
Продолжительность : 1 ч. 35 м.
Вид битрейта : Постоянный
Битрейт : 448 Кбит/сек
Каналы : 6 каналов
Channel layout : L R C LFE Ls Rs
Частота : 48,0 КГц
Частота кадров : 31,250 кадров/сек (1536 SPF)
Битовая глубина : 16 бит
Метод сжатия : С потерями
Размер потока : 305 Мбайт (6%)
Заголовок : Original (BD 3D)
Язык : English
ServiceKind/String : Complete Main
Default : Нет
Forced : Нет

Текст #1
Идентификатор : 5
Формат : UTF-8
Идентификатор кодека : S_TEXT/UTF8
Идентификатор кодека/Информация : UTF-8 Plain Text
Продолжительность : 1 ч. 26 м.
Битрейт : 114 бит/сек
ElementCount : 1692
Размер потока : 72,4 Кбайт (0%)
Заголовок : Полные
Язык : Russian
Default : Нет
Forced : Нет

Текст #2
Идентификатор : 6
Формат : UTF-8
Идентификатор кодека : S_TEXT/UTF8
Идентификатор кодека/Информация : UTF-8 Plain Text
Продолжительность : 1 ч. 19 м.
Битрейт : 1 бит/сек
ElementCount : 19
Размер потока : 655 байт (0%)
Заголовок : Форсированные
Язык : Ukrainian
Default : Нет
Forced : Нет

Текст #3
Идентификатор : 7
Формат : UTF-8
Идентификатор кодека : S_TEXT/UTF8
Идентификатор кодека/Информация : UTF-8 Plain Text
Продолжительность : 1 ч. 31 м.
Битрейт : 115 бит/сек
ElementCount : 1605
Размер потока : 77,3 Кбайт (0%)
Заголовок : Полные [Ярослав "VJ" Вішталюк]
Язык : Ukrainian
Default : Нет
Forced : Нет

Текст #4
Идентификатор : 8
Формат : UTF-8
Идентификатор кодека : S_TEXT/UTF8
Идентификатор кодека/Информация : UTF-8 Plain Text
Продолжительность : 1 ч. 34 м.
Битрейт : 73 бит/сек
ElementCount : 1718
Размер потока : 50,8 Кбайт (0%)
Заголовок : Full
Язык : English
Default : Нет
Forced : Нет

Текст #5
Идентификатор : 9
Формат : UTF-8
Идентификатор кодека : S_TEXT/UTF8
Идентификатор кодека/Информация : UTF-8 Plain Text
Продолжительность : 1 ч. 34 м.
Битрейт : 82 бит/сек
ElementCount : 1999
Размер потока : 57,4 Кбайт (0%)
Заголовок : SDH (BD 3D)
Язык : English
Default : Нет
Forced : Нет

Меню
00:00:00.000 : :1
00:06:36.563 : :2
00:11:17.760 : :3
00:18:01.289 : :4
00:21:05.389 : :5
00:25:45.085 : :6
00:29:01.990 : :7
00:34:01.706 : :8
00:37:10.603 : :9
00:43:43.037 : :10
00:48:33.786 : :11
00:52:16.675 : :12
00:55:48.095 : :13
00:59:50.128 : :14
01:05:28.758 : :15
01:09:06.476 : :16
01:15:03.499 : :17
01:21:30.719 : :18
01:25:12.691 : :19
01:27:39.129 : :20

Просьба к переливающим на другие сайты, в оформлении указывайте пожалуйста авторство группы R.G. HD-Films pb.wtf



Скачать Семейка Крудс: Новоселье в 3D через торрент https://i114.fastpic.ru/big/2021/0103/c4/b39bbe6e72412309b95f828d027f3bc4.jpg Скачать, смотреть онлайн Семейка Крудс: Новоселье в 3D бесплантно в хорошем качестве Описание: Такие харизматичные герои как члены клана Крудс просто не в силах усидеть на месте. Они смело идут навстречу самым ... 5 10 1
Торрент: Зарегистрирован [2022-06-10 11:03] · скачан: 5 раз
Статус: √ проверено
Размер: 5.19 GB
Как cкачать? Как скачать Семейка Крудс: Новоселье в 3D через торрент | UTorrent

28-11-2019 20:33  

Отключить вcю реклaмy на сайте

    Дорогой пользователь! Огромная просьба, поблагодарите релизера, оцените раздачу и оставьте свои комментарий, если Вы скачали Семейка Крудс: Новоселье в 3D через торрент бесплатно!
    Комментировать посты могут только пользователи прошедшие не сложную регистрацию
    Показать сообщения:    

    Семейка Крудс: Новоселье в 3D через торрент
    Скачать бесплатно Семейка Крудс: Новоселье в 3D
    Семейка Крудс: Новоселье в 3D скачать торрент
    Семейка Крудс: Новоселье в 3D смотреть онлайн
    Cкачать фильм Семейка Крудс: Новоселье в 3D бесплатно
    Семейка Крудс: Новоселье в 3D скачать торрент в хорошем качестве
    Семейка Крудс: Новоселье в 3D смотреть онлайн бесплатно в хорошем качестве


    Вы не можете начинать темы
    Вы не можете отвечать на сообщения
    Вы не можете редактировать свои сообщения
    Вы не можете удалять свои сообщения
    Вы не можете голосовать в опросах
    Вы не можете прикреплять файлы к сообщениям
    Вы можете скачивать файлы