Всегда рабочее зеркало без VPN и Proxy просто перед .vidak.icu напиши любое слово или цифру, Пример http://tnbg.vidak.icu

MVO

MVO

1 сезон

1

1 сезон

iTunes

1 сезон

13

1 сезон

Deluxe

pack

Рекомендуем

Repack

30

ВАЖНО

RePack

MK11

RePack

jed

RePack

fifa19

RePack

RDR2

RePack

NEED FOR SPEED™ PAYBACK

Кинопоиск HD

6 сезон

 Острые козырьки 6 сезон

Все сериалы

все сериалы на PB.wtf

RePack

FAR CRY 5
  
Magnet ссылка

Посредник / The Middle Man (Бент Хамер) [2021, драма, комедия, HDRip-AVC] MVO [Тоникс Медиа] от ExKinoRay pb.wtf

Посредник через торрент pb.wtf

Размер: 1.8 GB | Добавлен: 1 мес. 26 д. назад | Торрент скачан:23 раза
Смотреть онлайн Посредник | Скачать    Ребята, помогите собрать деньги на оплату серверов!!!

11-06-2022 16:51 Посредник Скачать торрент  


Посредник / The Middle Man
Информация о фильме:
Название: Посредник
Оригинальное название: The Middle Man
Год выхода: 2021
Жанр: драма, комедия
Режиссер: Бент Хамер
В ролях: Дон МакКеллар, Кеннет Уэлш, Нина Андресен, Николас Бро, Розали Чилелли, Тронд Фёуса Аурвог, Пол Гросс, Пол Сверре Валхейм Хаген, Аксель Хенни, Билл Лэйк

Описание: Фрэнк Фарелли устраивается на работу в забытом Богом американском городке Кармак, чьи жители пребывают в глубокой депрессии. Задача Фрэнка — быть посредником, который сможет профессионально сообщать плохие новости.



Страна: Германия, Дания, Канада, Норвегия
Студия: Bulbul Films, The Film Farm, Profile Pictures
Продолжительность: 01:31:03
Перевод: Профессиональный (многоголосый, закадровый) - Тоникс Медиа



Информация о файле:
Кодек: AVC
Формат: MKV
Качество: WEB-DLRip-AVC
Видео: MPEG-4 AVC, 1024x428, 25.000 fps, 1990 kb/s
Аудио RU: AC3, 6 ch, 48 kHz, 384 kbps
Аудио EN: AC3, 6 ch, 48 kHz, 448 kbps
Субтитры: English, Norwegian



x264 info: frame I:936 Avg QP:11.71 size: 87852
x264 info: frame P:31754 Avg QP:14.59 size: 21994
x264 info: frame B:103894 Avg QP:15.03 size: 5559
General
Unique ID : 140891308251413253690724109364303978026 (0x69FEADCF70917529831927DEC2875E2A)
Complete name : D:uTorrentРипы wolf1245The Middle Man.2021.MVO.TONICS.MEDIA.x264.HDRip-AVC.[wolf1245.ExKinoRay].mkv
Format : Matroska
Format version : Version 4
File size : 1.80 GiB
Duration : 1 h 31 min
Overall bit rate : 2 823 kb/s
Movie name : The Middle Man.2021.MVO.TONICS.MEDIA.x264.HDRip-AVC.[wolf1245.ExKinoRay]
Encoded date : UTC 2022-06-11 16:37:46
Writing application : mkvmerge v68.0.0 ('The Curtain') 64-bit
Writing library : libebml v1.4.2 + libmatroska v1.6.4
Video
ID : 1
Format : AVC
Format/Info : Advanced Video Codec
Format profile : [email protected]
Format settings : CABAC / 12 Ref Frames
Format settings, CABAC : Yes
Format settings, Reference frames : 12 frames
Codec ID : V_MPEG4/ISO/AVC
Duration : 1 h 31 min
Bit rate : 1 990 kb/s
Width : 1 024 pixels
Height : 428 pixels
Display aspect ratio : 2.40:1
Frame rate mode : Constant
Frame rate : 25.000 FPS
Color space : YUV
Chroma subsampling : 4:2:0
Bit depth : 8 bits
Scan type : Progressive
Bits/(Pixel*Frame) : 0.182
Stream size : 1.26 GiB (70%)
Title : -=[wolf1245.ExKinoRay]=-
Writing library : x264 core 163 r3060 5db6aa6
Encoding settings : cabac=1 / ref=12 / deblock=1:-3:-2 / analyse=0x3:0x133 / me=umh / subme=10 / psy=1 / psy_rd=0.98:0.10 / mixed_ref=1 / me_range=32 / chroma_me=1 / trellis=2 / 8x8dct=1 / cqm=0 / deadzone=22,11 / fast_pskip=1 / chroma_qp_offset=-3 / threads=10 / lookahead_threads=2 / sliced_threads=0 / nr=0 / decimate=0 / interlaced=0 / bluray_compat=0 / constrained_intra=0 / bframes=10 / b_pyramid=2 / b_adapt=2 / b_bias=0 / direct=3 / weightb=1 / open_gop=0 / weightp=2 / keyint=250 / keyint_min=25 / scenecut=40 / intra_refresh=0 / rc_lookahead=150 / rc=2pass / mbtree=0 / bitrate=1990 / ratetol=1.0 / qcomp=0.60 / qpmin=0 / qpmax=69 / qpstep=4 / cplxblur=20.0 / qblur=0.5 / vbv_maxrate=50000 / vbv_bufsize=62500 / nal_hrd=none / filler=0 / ip_ratio=1.40 / pb_ratio=1.30 / aq=1:1.00
Language : English
Default : Yes
Forced : No
Color range : Limited
Color primaries : BT.709
Transfer characteristics : BT.709
Matrix coefficients : BT.709
Audio #1
ID : 2
Format : AC-3
Format/Info : Audio Coding 3
Commercial name : Dolby Digital
Codec ID : A_AC3
Duration : 1 h 31 min
Bit rate mode : Constant
Bit rate : 384 kb/s
Channel(s) : 6 channels
Channel layout : L R C LFE Ls Rs
Sampling rate : 48.0 kHz
Frame rate : 31.250 FPS (1536 SPF)
Compression mode : Lossy
Stream size : 250 MiB (14%)
Title : MVO | Toniks Media | RUS
Language : Russian
Service kind : Complete Main
Default : Yes
Forced : No
Audio #2
ID : 3
Format : AC-3
Format/Info : Audio Coding 3
Commercial name : Dolby Digital
Codec ID : A_AC3
Duration : 1 h 31 min
Bit rate mode : Constant
Bit rate : 448 kb/s
Channel(s) : 6 channels
Channel layout : L R C LFE Ls Rs
Sampling rate : 48.0 kHz
Frame rate : 31.250 FPS (1536 SPF)
Compression mode : Lossy
Stream size : 292 MiB (16%)
Title : Original | ENG
Language : English
Service kind : Complete Main
Default : No
Forced : No
Text #1
ID : 4
Format : UTF-8
Codec ID : S_TEXT/UTF8
Codec ID/Info : UTF-8 Plain Text
Duration : 1 h 29 min
Bit rate : 46 b/s
Count of elements : 1038
Stream size : 30.6 KiB (0%)
Language : English
Default : No
Forced : No
Text #2
ID : 5
Format : UTF-8
Codec ID : S_TEXT/UTF8
Codec ID/Info : UTF-8 Plain Text
Duration : 1 h 31 min
Bit rate : 65 b/s
Count of elements : 1634
Stream size : 43.9 KiB (0%)
Language : Norwegian
Default : No
Forced : No
Menu
00:00:00.000 : :Chapter 01
00:10:59.160 : :Chapter 02
00:22:13.400 : :Chapter 03
00:35:30.120 : :Chapter 04
00:45:19.440 : :Chapter 05
00:54:44.400 : :Chapter 06
01:06:36.240 : :Chapter 07
01:20:03.240 : :Chapter 08
Релиз от:
Автор релиза:
pb.wtf



Скачать Посредник через торрент http://i5.imageban.ru/out/2022/06/11/a6c65cc2393f8e4f18df5fbfd4919a7c.jpg Скачать, смотреть онлайн Посредник бесплантно в хорошем качестве Описание: Фрэнк Фарелли устраивается на работу в забытом Богом американском городке Кармак, чьи жители пребывают в глубокой депрессии. ... 10 10 1
Торрент: Зарегистрирован [2022-06-11 16:51] · скачан: 23 раз
Статус: √ проверено
Размер: 1.8 GB
Как cкачать? Как скачать Посредник через торрент | UTorrent

28-11-2019 20:33  

Отключить вcю реклaмy на сайте

    Дорогой пользователь! Огромная просьба, поблагодарите релизера, оцените раздачу и оставьте свои комментарий, если Вы скачали Посредник через торрент бесплатно!
    Комментировать посты могут только пользователи прошедшие не сложную регистрацию
    Показать сообщения:    

    Посредник через торрент
    Скачать бесплатно Посредник
    Посредник скачать торрент
    Посредник смотреть онлайн
    Cкачать фильм Посредник бесплатно
    Посредник скачать торрент в хорошем качестве
    Посредник смотреть онлайн бесплатно в хорошем качестве


    Вы не можете начинать темы
    Вы не можете отвечать на сообщения
    Вы не можете редактировать свои сообщения
    Вы не можете удалять свои сообщения
    Вы не можете голосовать в опросах
    Вы не можете прикреплять файлы к сообщениям
    Вы можете скачивать файлы