Всегда рабочее зеркало без VPN и Proxy просто перед .vidak.icu напиши любое слово или цифру, Пример http://290y.vidak.icu

MVO

MVO

1 сезон

1

1 сезон

iTunes

1 сезон

13

1 сезон

Deluxe

pack

Рекомендуем

Repack

30

ВАЖНО

RePack

MK11

RePack

jed

RePack

fifa19

RePack

RDR2

RePack

NEED FOR SPEED™ PAYBACK

Кинопоиск HD

6 сезон

 Острые козырьки 6 сезон

Все сериалы

все сериалы на PB.wtf

RePack

FAR CRY 5
  
Magnet ссылка

Артек. Большое путешествие (Карен Захаров, Армен Ананикян) [2021, комедия, семейный, приключения, фэнтези, WEB-DLRip-AVC] RUS [IVI] от ExKinoRay pb.wtf

Артек. Большое путешествие через торрент pb.wtf

Раздают: 7 [ 280 KB/s ]
Размер: 1.74 GB | Добавлен: 1 мес. 26 д. назад | Торрент скачан:282 раза
Смотреть онлайн Артек. Большое путешествие | Скачать    Ребята, помогите собрать деньги на оплату серверов!!!

12-06-2022 06:37 Артек. Большое путешествие Скачать торрент  


Артек. Большое путешествие
Информация о фильме:
Название: Артек. Большое путешествие
Год выхода: 2021
Жанр: комедия, семейный, приключения, фэнтези
Режиссер: Карен Захаров, Армен Ананикян
В ролях: Даниил Большов, Алексей Онежен, Елизавета Анохина, Даниил Муравьев-Изотов, Екатерина Климова, Людмила Артемьева, Елизавета Моряк, Евгений Пронин, Виталий Безруков, Михаил Галустян

Описание: Ромка, Ярик, Николетта и Елисей загадывают по желанию у волшебного дерева в лагере «Артек». Дерево переносит их на 30 лет назад — в 1988 год, где ребята встречают своих родителей, которые тогда тоже отдыхали в «Артеке». Теперь ребятам необходимо подружиться со своими родителями и, действуя сообща, найти путь обратно в будущее.



Страна: Россия
Студия: Кинокомпания Большое Кино, Fresh Film
Продолжительность: 01:44:45
Перевод: Оригинал - IVI



Информация о файле:
Кодек: AVC
Формат: MKV
Качество: WEB-DLRip-AVC
Видео: MPEG-4 AVC, 1024x384, 24.000 fps, 2000 kbps
Аудио RU: AC3, 6 ch, 48 kHz, 384 kbps



x264 info: frame I:1471 Avg QP:13.52 size: 76514
x264 info: frame P:35641 Avg QP:16.46 size: 23316
x264 info: frame B:113727 Avg QP:18.25 size: 5511
General
Unique ID : 101549368416562048887367809857267800769 (0x4C65B26B1970E0ACAAE699D2FAD19AC1)
Complete name : D:uTorrentРипы wolf1245Artek.Bolshoe.puteshestvie.2021.RUS.IVI.x264.WEB-DLRip-AVC.[wolf1245.ExKinoRay].mkv
Format : Matroska
Format version : Version 4
File size : 1.74 GiB
Duration : 1 h 44 min
Overall bit rate : 2 385 kb/s
Movie name : Artek.Bolshoe.puteshestvie.2021.RUS.IVI.x264.WEB-DLRip-AVC.[wolf1245.ExKinoRay]
Encoded date : UTC 2022-06-12 06:26:50
Writing application : mkvmerge v68.0.0 ('The Curtain') 64-bit
Writing library : libebml v1.4.2 + libmatroska v1.6.4
Video
ID : 1
Format : AVC
Format/Info : Advanced Video Codec
Format profile : [email protected]
Format settings : CABAC / 10 Ref Frames
Format settings, CABAC : Yes
Format settings, Reference frames : 10 frames
Codec ID : V_MPEG4/ISO/AVC
Duration : 1 h 44 min
Bit rate : 2 000 kb/s
Width : 1 024 pixels
Height : 384 pixels
Display aspect ratio : 2.677
Frame rate mode : Constant
Frame rate : 24.000 FPS
Color space : YUV
Chroma subsampling : 4:2:0
Bit depth : 8 bits
Scan type : Progressive
Bits/(Pixel*Frame) : 0.212
Stream size : 1.46 GiB (84%)
Title : -=[wolf1245.ExKinoRay]=-
Writing library : x264 core 163 r3060 5db6aa6
Encoding settings : cabac=1 / ref=10 / deblock=1:-2:-1 / analyse=0x3:0x133 / me=umh / subme=10 / psy=1 / psy_rd=0.00:0.00 / mixed_ref=1 / me_range=32 / chroma_me=1 / trellis=2 / 8x8dct=1 / cqm=0 / deadzone=22,11 / fast_pskip=1 / chroma_qp_offset=0 / threads=10 / lookahead_threads=2 / sliced_threads=0 / nr=0 / decimate=0 / interlaced=0 / bluray_compat=0 / constrained_intra=0 / bframes=10 / b_pyramid=2 / b_adapt=2 / b_bias=0 / direct=3 / weightb=1 / open_gop=0 / weightp=2 / keyint=240 / keyint_min=24 / scenecut=40 / intra_refresh=0 / rc_lookahead=100 / rc=2pass / mbtree=0 / bitrate=2000 / ratetol=1.0 / qcomp=0.60 / qpmin=0 / qpmax=69 / qpstep=4 / cplxblur=20.0 / qblur=0.5 / vbv_maxrate=50000 / vbv_bufsize=62500 / nal_hrd=none / filler=0 / ip_ratio=1.40 / pb_ratio=1.30 / aq=3:0.80
Language : Russian
Default : Yes
Forced : No
Audio
ID : 2
Format : AC-3
Format/Info : Audio Coding 3
Commercial name : Dolby Digital
Codec ID : A_AC3
Duration : 1 h 44 min
Bit rate mode : Constant
Bit rate : 384 kb/s
Channel(s) : 6 channels
Channel layout : L R C LFE Ls Rs
Sampling rate : 48.0 kHz
Frame rate : 31.250 FPS (1536 SPF)
Compression mode : Lossy
Stream size : 288 MiB (16%)
Title : RUS | IVI
Language : Russian
Service kind : Complete Main
Default : Yes
Forced : Yes
Релиз от:
Автор релиза:
pb.wtf



Скачать Артек. Большое путешествие через торрент http://i120.fastpic.org/big/2022/0612/e4/1ac4490a90a4f1cd42f0cfb6153314e4.jpg Скачать, смотреть онлайн Артек. Большое путешествие бесплантно в хорошем качестве Описание: Ромка, Ярик, Николетта и Елисей загадывают по желанию у волшебного дерева в лагере «Артек». Дерево переносит их на 30 лет назад ... 8.2 10 10
Торрент: Зарегистрирован [2022-06-12 06:37] · скачан: 282 раз
Статус: √ проверено
Размер: 1.74 GB
Как cкачать? Как скачать Артек. Большое путешествие через торрент | UTorrent

28-11-2019 20:33  

Отключить вcю реклaмy на сайте

12-06-2022 07:24 Артек. Большое путешествие Скачать торрент  

карен и армен сняли галустяна и это кино получило рейтинг больше пяти? хрена се новости. надо смотреть)pb.wtf



    Дорогой пользователь! Огромная просьба, поблагодарите релизера, оцените раздачу и оставьте свои комментарий, если Вы скачали Артек. Большое путешествие через торрент бесплатно!
    Комментировать посты могут только пользователи прошедшие не сложную регистрацию
    Показать сообщения:    

    Артек. Большое путешествие через торрент
    Скачать бесплатно Артек. Большое путешествие
    Артек. Большое путешествие скачать торрент
    Артек. Большое путешествие смотреть онлайн
    Cкачать фильм Артек. Большое путешествие бесплатно
    Артек. Большое путешествие скачать торрент в хорошем качестве
    Артек. Большое путешествие смотреть онлайн бесплатно в хорошем качестве


    Вы не можете начинать темы
    Вы не можете отвечать на сообщения
    Вы не можете редактировать свои сообщения
    Вы не можете удалять свои сообщения
    Вы не можете голосовать в опросах
    Вы не можете прикреплять файлы к сообщениям
    Вы можете скачивать файлы