Доктор Стрэндж

Лицензия

Добыча

Дубляж

Дом дракона

1 сезон

Тор

Дубляж

В эфире

Дубляж

Там, где раки поют

MVO

Властелин колец

1 сезон

Deluxe

pack

Рекомендуем

30

Пиратка

ВАЖНО

ВАЖНО

Ghostwire

Пиратка

jed

RePack

nioh2

RePack

RDR2

RePack

NEED FOR SPEED™ PAYBACK

RePack

скачать торрент

Кинопоиск HD

Острые козырьки 6 сезон

6 сезон

FAR CRY 6

RePack

скачать торрент

Лицензия

скачать торрент

MVO

1

1 сезон

скачать торрент

1 сезон

скачать торрент

Лицензия

  

Джуманджи: Зов джунглей в 3D / Jumanji: Welcome to the Jungle in 3D (Джейк Кэздан) [2017 г., фэнтези, боевик, комедия, приключения, BDRip 1080p, Дубляж] Анаглиф (Дюбуа) от R.G. HD-Films

Джуманджи: Зов джунглей в 3D через торрент pb.wtf

Размер: 6.9 GB | Добавлен: 5 мес. 20 д. назад | Торрент скачан:7 раз
Смотреть онлайн | Скачать   

12-06-2022 08:09 Джуманджи: Зов джунглей в 3D Скачать торрент  

Джуманджи: Зов джунглей в 3D / Jumanji: Welcome to the Jungle in 3D
Год выпуска: 2017
Страна: США
Жанр: фэнтези, боевик, комедия, приключения
Продолжительность: 01:59:02
Перевод: Дубляж
Субтитры: Русские (Forced вшитые, full), украинские, английские

Режиссер: Джейк Кэздан

Бюджет: $90 000 000
Премьера в мире: 5 декабря 2017

rating

В ролях: Дуэйн Джонсон (Spencer), Кевин Харт (Fridge), Джек Блэк (Bethany), Карен Гиллан (Martha), Риз Дэрби (Nigel), Бобби Каннавале (Van Pelt), Ник Джонас (Alex), Алекс Вулф (Young Spencer), Сер’Дариус Блэйн (Young Fridge), Мэдисон Айсмен (Young Bethany), Морган Тернер (Young Martha), Шон Бакстон (Jogger)

Описание: Четверо подростков оказываются внутри игры «Джуманджи». Их ждет схватка с носорогами, черными мамбами, а на каждом шагу будет подстерегать бесконечная череда ловушек и головоломок. Чтобы пройти игру и остаться в живых, им придется перевоплотиться в персонажей игры: робкий и застенчивый Спенсер превращается в отважного и сильного исследователя, здоровяк Фридж — в коротышку, модница и красавица Беттани — в профессора, а неуклюжая и нескладная Марта становится бесстрашной и ловкой амазонкой. Друзьям придется привыкнуть к совершенно новым и таким непривычным для себя ролям и найти дорогу домой.

Доп. информация: Формат 3D: Анаглиф (Дюбуа)



Качество: BDRip 1080p
Формат: MKV
Видео кодек: H.264
Аудио кодек: AC3
Видео: 1920 x 1080 (16:9), 6786 kbps, 23,976 fps, 0.136 bpp
Аудио#1: Русский / AC3 / 48 KHz / 5.1 ch / 640 Kbps (Дубляж - BD EUR)
Аудио#2: Украинский / AC3 / 48 KHz / 2 ch / 224 Kbps (Дубляж - iTunes)
Аудио#3: Английский / AC3 / 48 KHz / 5.1 ch / 640 Kbps (Original - BD 3D)
Релиз от: Автор рипа: slaventi-69
x264 [info]: profile High, level 4.1
x264 [info]: frame I:2246 Avg QP:13.17 size:167732
x264 [info]: frame P:47787 Avg QP:14.42 size: 64909
x264 [info]: frame B:121208 Avg QP:16.88 size: 21283
x264 [info]: consecutive B-frames: 4.4% 5.4% 14.4% 43.1% 32.7%


Общее
Уникальный идентификатор : 136436899595465742462855937745857166788 (0x66A4CA81ED454960484F9EEB0EE23DC4)
Полное имя : G:\60 FPS\Jumanji.2.(2017).3D.(Anaglyph_Dubois).mkv
Формат : Matroska
Версия формата : Version 4
Размер файла : 6,90 Гбайт
Продолжительность : 1 ч. 59 м.
Общий поток : 8292 Кбит/сек
Название фильма : Джуманджи: Зов джунглей / Jumanji: Welcome to the Jungle (2017) in 3D (Anaglyph_Dubois)
Дата кодирования : UTC 2022-06-12 07:08:49
Программа кодирования : mkvmerge v25.0.0 ('Prog Noir') 64-bit
Библиотека кодирования : libebml v1.3.6 + libmatroska v1.4.9

Видео
Идентификатор : 1
Формат : AVC
Формат/Информация : Advanced Video Codec
Профиль формата : [email protected]
Настройки формата : CABAC / 4 Ref Frames
Параметр CABAC формата : Да
Параметр RefFrames формата : 4 кадра
Идентификатор кодека : V_MPEG4/ISO/AVC
Продолжительность : 1 ч. 59 м.
Битрейт : 6786 Кбит/сек
Ширина : 1920 пикселей
Высота : 1080 пикселей
Соотношение сторон : 16:9
Режим частоты кадров : Постоянный
Частота кадров : 23,976 кадра/сек
Цветовое пространство : YUV
Субдискретизация насыщенности : 4:2:0
Битовая глубина : 8 бит
Тип развёртки : Прогрессивная
Бит/(Пиксели*Кадры) : 0.136
Размер потока : 5,64 Гбайт (82%)
Заголовок : slaventi-69 ( R.G. HD-Films ) 3Д (Anaglyph_Dubois)
Библиотека кодирования : x264 core 130 r2273 b3065e6
Настройки программы : cabac=1 / ref=4 / deblock=1:-3:-3 / analyse=0x3:0x133 / me=umh / subme=9 / psy=1 / psy_rd=1.00:0.00 / mixed_ref=1 / me_range=32 / chroma_me=1 / trellis=2 / 8x8dct=1 / cqm=0 / deadzone=21,11 / fast_pskip=0 / chroma_qp_offset=-2 / threads=8 / lookahead_threads=4 / sliced_threads=0 / nr=0 / decimate=1 / interlaced=0 / bluray_compat=0 / constrained_intra=0 / bframes=4 / b_pyramid=2 / b_adapt=2 / b_bias=0 / direct=1 / weightb=1 / open_gop=0 / weightp=2 / keyint=600 / keyint_min=23 / scenecut=40 / intra_refresh=0 / rc=crf / mbtree=0 / crf=19.3 / qcomp=0.60 / qpmin=0 / qpmax=69 / qpstep=4 / ip_ratio=1.40 / pb_ratio=1.30 / aq=1:1.00
Язык : English
Default : Да
Forced : Нет

Аудио #1
Идентификатор : 2
Формат : AC-3
Формат/Информация : Audio Coding 3
Коммерческое название : Dolby Digital
Идентификатор кодека : A_AC3
Продолжительность : 1 ч. 59 м.
Вид битрейта : Постоянный
Битрейт : 640 Кбит/сек
Каналы : 6 каналов
Channel layout : L R C LFE Ls Rs
Частота : 48,0 КГц
Частота кадров : 31,250 кадров/сек (1536 SPF)
Битовая глубина : 16 бит
Метод сжатия : С потерями
Размер потока : 545 Мбайт (8%)
Заголовок : Дубляж - BD EUR
Язык : Russian
ServiceKind/String : Complete Main
Default : Да
Forced : Нет

Аудио #2
Идентификатор : 3
Формат : AC-3
Формат/Информация : Audio Coding 3
Коммерческое название : Dolby Digital
Идентификатор кодека : A_AC3
Продолжительность : 1 ч. 59 м.
Вид битрейта : Постоянный
Битрейт : 224 Кбит/сек
Каналы : 2 канала
Channel layout : L R
Частота : 48,0 КГц
Частота кадров : 31,250 кадров/сек (1536 SPF)
Битовая глубина : 16 бит
Метод сжатия : С потерями
Размер потока : 191 Мбайт (3%)
Заголовок : Дубляж - iTunes
Язык : Ukrainian
ServiceKind/String : Complete Main
Default : Нет
Forced : Нет

Аудио #3
Идентификатор : 4
Формат : AC-3
Формат/Информация : Audio Coding 3
Коммерческое название : Dolby Digital
Идентификатор кодека : A_AC3
Продолжительность : 1 ч. 59 м.
Вид битрейта : Постоянный
Битрейт : 640 Кбит/сек
Каналы : 6 каналов
Channel layout : L R C LFE Ls Rs
Частота : 48,0 КГц
Частота кадров : 31,250 кадров/сек (1536 SPF)
Битовая глубина : 16 бит
Метод сжатия : С потерями
Размер потока : 545 Мбайт (8%)
Заголовок : Original - BD 3D
Язык : English
ServiceKind/String : Complete Main
Default : Нет
Forced : Нет

Текст #1
Идентификатор : 5
Формат : UTF-8
Идентификатор кодека : S_TEXT/UTF8
Идентификатор кодека/Информация : UTF-8 Plain Text
Продолжительность : 1 ч. 57 м.
Битрейт : 95 бит/сек
ElementCount : 1577
Размер потока : 82,2 Кбайт (0%)
Заголовок : Полные
Язык : Russian
Default : Нет
Forced : Нет

Текст #2
Идентификатор : 6
Формат : UTF-8
Идентификатор кодека : S_TEXT/UTF8
Идентификатор кодека/Информация : UTF-8 Plain Text
Продолжительность : 1 ч. 0 м.
Битрейт : 0 бит/сек
ElementCount : 11
Размер потока : 375 байт (0%)
Заголовок : Форсированные
Язык : Ukrainian
Default : Нет
Forced : Нет

Текст #3
Идентификатор : 7
Формат : UTF-8
Идентификатор кодека : S_TEXT/UTF8
Идентификатор кодека/Информация : UTF-8 Plain Text
Продолжительность : 1 ч. 57 м.
Битрейт : 76 бит/сек
ElementCount : 1562
Размер потока : 66,4 Кбайт (0%)
Заголовок : Полные
Язык : Ukrainian
Default : Нет
Forced : Нет

Текст #4
Идентификатор : 8
Формат : UTF-8
Идентификатор кодека : S_TEXT/UTF8
Идентификатор кодека/Информация : UTF-8 Plain Text
Продолжительность : 1 ч. 48 м.
Битрейт : 63 бит/сек
ElementCount : 1539
Размер потока : 50,9 Кбайт (0%)
Заголовок : Full
Язык : English
Default : Нет
Forced : Нет

Текст #5
Идентификатор : 9
Формат : UTF-8
Идентификатор кодека : S_TEXT/UTF8
Идентификатор кодека/Информация : UTF-8 Plain Text
Продолжительность : 1 ч. 49 м.
Битрейт : 72 бит/сек
ElementCount : 2103
Размер потока : 58,0 Кбайт (0%)
Заголовок : SDH
Язык : English
Default : Нет
Forced : Нет

Меню
00:00:00.000 : :1
00:07:18.104 : :2
00:17:15.993 : :3
00:23:23.235 : :4
00:29:24.972 : :5
00:42:28.546 : :6
00:47:11.162 : :7
00:54:26.722 : :8
01:03:20.839 : :9
01:10:21.801 : :10
01:15:51.672 : :11
01:24:10.087 : :12
01:28:20.295 : :13
01:33:48.414 : :14
01:42:22.887 : :15
01:48:31.839 : :16

Просьба к переливающим на другие сайты, в оформлении указывайте пожалуйста авторство группы R.G. HD-Films



Скачать Джуманджи: Зов джунглей в 3D через торрент http://i103.fastpic.ru/big/2018/0330/3d/95e321049664432a15981014f5f4fb3d.png Скачать, смотреть онлайн Джуманджи: Зов джунглей в 3D бесплантно в хорошем качестве Описание: Четверо подростков оказываются внутри игры «Джуманджи». Их ждет схватка с носорогами, черными мамбами, а на каждом шагу будет ... 5 10 1
Торрент: Зарегистрирован [2022-06-12 08:09] · скачан: 7 раз
Статус: √ проверено
Размер: 6.9 GB
Как cкачать? Как скачать Джуманджи: Зов джунглей в 3D через торрент | UTorrent

% Раздел Тема Автор DL S | L
3D Фильмы [ 15.11 GB ] Джуманджи: Зов джунглей в 3Д / Jumanji: Welcome to the Jungle 3D | Лицензия | 1080p bober100 Скачать
1 | 0
3D Фильмы [ 16.32 GB ] Джуманджи: Зов джунглей в 3Д / Jumanji: Welcome to the Jungle 3D | | 1080p serega768 Скачать
1 | 0
3D Фильмы [ 11.02 GB ] Джуманджи: Зов джунглей в 3Д / Jumanji: Welcome to the Jungle 3D | iTunes | 1080p bober100 Скачать
1 | 0

28-11-2019 20:33  


Отключить вcю реклaмy на сайте, в т.ч. и в плеере онлайн просмотра!

    Дорогой пользователь! Огромная просьба, поблагодарите релизера, оцените раздачу и оставьте свои комментарий, если Вы скачали Джуманджи: Зов джунглей в 3D через торрент бесплатно!!
    Комментировать посты могут только пользователи прошедшие не сложную регистрацию
    Показать сообщения:    


    Джуманджи: Зов джунглей в 3D через торрент
    Скачать бесплатно Джуманджи: Зов джунглей в 3D
    Джуманджи: Зов джунглей в 3D скачать торрент
    Джуманджи: Зов джунглей в 3D смотреть онлайн
    Cкачать фильм Джуманджи: Зов джунглей в 3D бесплатно
    Джуманджи: Зов джунглей в 3D скачать торрент в хорошем качестве
    Джуманджи: Зов джунглей в 3D смотреть онлайн бесплатно в хорошем качестве
    Вы не можете начинать темы
    Вы не можете отвечать на сообщения
    Вы не можете редактировать свои сообщения
    Вы не можете удалять свои сообщения
    Вы не можете голосовать в опросах
    Вы не можете прикреплять файлы к сообщениям
    Вы можете скачивать файлы
    Джуманджи: Зов джунглей в 3D / Jumanji: Welcome to the Jungle in 3D [2017 г., фэнтези, боевик, комедия, приключения, BDRip 1080p, Дубляж] Анаглиф от R.G. HD-Films смотреть онлайн, скачать торрент picoco.icu