Доктор Стрэндж

Лицензия

Добыча

Дубляж

Уэнсдэй

1 сезон

Тор

Дубляж

В эфире

Дубляж

Там, где раки поют

MVO

Властелин колец

1 сезон

Deluxe

pack

Рекомендуем

30

Пиратка

ВАЖНО

ВАЖНО

Ghostwire

Пиратка

jed

RePack

nioh2

RePack

RDR2

RePack

NEED FOR SPEED™ PAYBACK

RePack

скачать торрент

Кинопоиск HD

Острые козырьки 6 сезон

6 сезон

FAR CRY 6

RePack

скачать торрент

Лицензия

скачать торрент

MVO

1

1 сезон

скачать торрент

1 сезон

скачать торрент

Лицензия

  

Охотник на монстров в 3D / Monster Hunter in 3D (Пол У. С. Андерсон) [2020 г., фэнтези, боевик, приключения, BDRip 1080p, Дубляж] Анаглиф (Дюбуа) от R.G. HD-Films

Охотник на монстров в 3D через торрент pb.wtf

Размер: 6.29 GB | Добавлен: 5 мес. 23 д. назад | Торрент скачан:12 раз
Смотреть онлайн | Скачать   

12-06-2022 08:56 Охотник на монстров в 3D Скачать торрент  

Охотник на монстров в 3D / Monster Hunter in 3D
Год выпуска: 2020
Страна: США, Китай, Германия, Япония
Жанр: фэнтези, боевик, приключения
Продолжительность: 01:43:07
Перевод: Дубляж
Субтитры: Русские (Forced вшитые, full), украинские, английские

Режиссер: Пол У. С. Андерсон

Бюджет: $60 000 000
Премьера в мире: 3 декабря 2020

rating

В ролях: Милла Йовович, Тони Джа, Рон Перлман, Миган Гуд, Ти-Ай, Джош Хелман, Джин О-Юн, Николас Расенти, Диего Бонета, Хирона Ямадзаки

Описание: Параллельно нашему миру существует иной — мир, где правят крайне опасные и наделенные невероятной силой монстры. Именно сюда через пространственный портал попадают лейтенант Артемис и ее отряд элитных бойцов. И теперь им предстоит проверить себя на прочность перед лицом невиданной ранее угрозы. Пытаясь выжить и найти дорогу домой, Артемис объединяется с местным Охотником, который научился выживать в этих враждебных землях. Вместе им предстоит вступить в схватку с ужасающими монстрами, не знающими страха и жалости.

Доп. информация: Формат 3D: Анаглиф (Дюбуа)



Качество: BDRip 1080p
Формат: MKV
Видео кодек: H.264
Аудио кодек: AC3
Видео: 1920 x 1080 (16:9), 7003 kbps, 23,976 fps, 0.141 bpp
Аудио#1: Русский / AC3 / 48 KHz / 5.1 ch / 640 Kbps (Дубляж - BD CEE)
Аудио#2: Украинский / AC3 / 48 KHz / 5.1 ch / 448 Kbps (Дубляж) (спасибо Hurtom!)
Аудио#3: English / AC3 / 48 KHz / 5.1 ch / 640 Kbps (Original - BD 3D Ger)
Релиз от: Автор рипа: slaventi-69
x264 [info]: profile High, level 4.1
x264 [info]: frame I:1811 Avg QP:13.06 size:134690
x264 [info]: frame P:46585 Avg QP:14.14 size: 58485
x264 [info]: frame B:99940 Avg QP:16.28 size: 24488
x264 [info]: consecutive B-frames: 7.3% 7.4% 20.8% 35.4% 29.1%


Общее
Уникальный идентификатор : 67010517305258666054273380616059474798 (0x3269C19573BB1FF1BC2FD697320BD36E)
Полное имя : G:\60 FPS\Monster.Hunter.(2020).3D.(Anaglyph_Dubois).mkv
Формат : Matroska
Версия формата : Version 4
Размер файла : 6,29 Гбайт
Продолжительность : 1 ч. 43 м.
Общий поток : 8733 Кбит/сек
Название фильма : Охотник на монстров / Monster Hunter (2020) in 3D (Anaglyph_Dubois)
Дата кодирования : UTC 2022-06-12 08:26:43
Программа кодирования : mkvmerge v25.0.0 ('Prog Noir') 64-bit
Библиотека кодирования : libebml v1.3.6 + libmatroska v1.4.9

Видео
Идентификатор : 1
Формат : AVC
Формат/Информация : Advanced Video Codec
Профиль формата : [email protected]
Настройки формата : CABAC / 4 Ref Frames
Параметр CABAC формата : Да
Параметр RefFrames формата : 4 кадра
Идентификатор кодека : V_MPEG4/ISO/AVC
Продолжительность : 1 ч. 43 м.
Битрейт : 7003 Кбит/сек
Ширина : 1920 пикселей
Высота : 1080 пикселей
Соотношение сторон : 16:9
Режим частоты кадров : Постоянный
Частота кадров : 23,976 кадра/сек
Цветовое пространство : YUV
Субдискретизация насыщенности : 4:2:0
Битовая глубина : 8 бит
Тип развёртки : Прогрессивная
Бит/(Пиксели*Кадры) : 0.141
Размер потока : 5,04 Гбайт (80%)
Заголовок : slaventi-69 ( R.G. HD-Films ) 3Д (Anaglyph_Dubois)
Библиотека кодирования : x264 core 130 r2273 b3065e6
Настройки программы : cabac=1 / ref=4 / deblock=1:-3:-3 / analyse=0x3:0x133 / me=umh / subme=9 / psy=1 / psy_rd=1.00:0.00 / mixed_ref=1 / me_range=32 / chroma_me=1 / trellis=2 / 8x8dct=1 / cqm=0 / deadzone=21,11 / fast_pskip=0 / chroma_qp_offset=-2 / threads=8 / lookahead_threads=4 / sliced_threads=0 / nr=0 / decimate=1 / interlaced=0 / bluray_compat=0 / constrained_intra=0 / bframes=4 / b_pyramid=2 / b_adapt=2 / b_bias=0 / direct=1 / weightb=1 / open_gop=0 / weightp=2 / keyint=600 / keyint_min=23 / scenecut=40 / intra_refresh=0 / rc=crf / mbtree=0 / crf=20.0 / qcomp=0.60 / qpmin=0 / qpmax=69 / qpstep=4 / ip_ratio=1.40 / pb_ratio=1.30 / aq=1:1.00
Язык : English
Default : Да
Forced : Нет

Аудио #1
Идентификатор : 2
Формат : AC-3
Формат/Информация : Audio Coding 3
Коммерческое название : Dolby Digital
Идентификатор кодека : A_AC3
Продолжительность : 1 ч. 42 м.
Вид битрейта : Постоянный
Битрейт : 640 Кбит/сек
Каналы : 6 каналов
Channel layout : L R C LFE Ls Rs
Частота : 48,0 КГц
Частота кадров : 31,250 кадров/сек (1536 SPF)
Битовая глубина : 16 бит
Метод сжатия : С потерями
Размер потока : 471 Мбайт (7%)
Заголовок : Дубляж (BD CEE)
Язык : Russian
ServiceKind/String : Complete Main
Default : Да
Forced : Нет

Аудио #2
Идентификатор : 3
Формат : AC-3
Формат/Информация : Audio Coding 3
Коммерческое название : Dolby Digital
Идентификатор кодека : A_AC3
Продолжительность : 1 ч. 43 м.
Вид битрейта : Постоянный
Битрейт : 448 Кбит/сек
Каналы : 6 каналов
Channel layout : L R C LFE Ls Rs
Частота : 48,0 КГц
Частота кадров : 31,250 кадров/сек (1536 SPF)
Битовая глубина : 16 бит
Метод сжатия : С потерями
Размер потока : 330 Мбайт (5%)
Заголовок : Дубляж
Язык : Ukrainian
ServiceKind/String : Complete Main
Default : Нет
Forced : Нет

Аудио #3
Идентификатор : 4
Формат : AC-3
Формат/Информация : Audio Coding 3
Коммерческое название : Dolby Digital
Идентификатор кодека : A_AC3
Продолжительность : 1 ч. 43 м.
Вид битрейта : Постоянный
Битрейт : 640 Кбит/сек
Каналы : 6 каналов
Channel layout : L R C LFE Ls Rs
Частота : 48,0 КГц
Частота кадров : 31,250 кадров/сек (1536 SPF)
Битовая глубина : 16 бит
Метод сжатия : С потерями
Размер потока : 472 Мбайт (7%)
Заголовок : Original (BD 3D Ger)
Язык : English
ServiceKind/String : Complete Main
Default : Нет
Forced : Нет

Текст #1
Идентификатор : 5
Формат : UTF-8
Идентификатор кодека : S_TEXT/UTF8
Идентификатор кодека/Информация : UTF-8 Plain Text
Продолжительность : 1 ч. 41 м.
Битрейт : 23 бит/сек
ElementCount : 478
Размер потока : 17,3 Кбайт (0%)
Заголовок : Полные (лиц)
Язык : Russian
Default : Нет
Forced : Нет

Текст #2
Идентификатор : 6
Формат : UTF-8
Идентификатор кодека : S_TEXT/UTF8
Идентификатор кодека/Информация : UTF-8 Plain Text
Продолжительность : 1 ч. 29 м.
Битрейт : 0 бит/сек
ElementCount : 14
Размер потока : 387 байт (0%)
Заголовок : Форсированные (ver.Ash61)
Язык : Ukrainian
Default : Нет
Forced : Нет

Текст #3
Идентификатор : 7
Формат : UTF-8
Идентификатор кодека : S_TEXT/UTF8
Идентификатор кодека/Информация : UTF-8 Plain Text
Продолжительность : 1 ч. 41 м.
Битрейт : 25 бит/сек
ElementCount : 486
Размер потока : 18,6 Кбайт (0%)
Заголовок : Полные
Язык : Ukrainian
Default : Нет
Forced : Нет

Текст #4
Идентификатор : 8
Формат : UTF-8
Идентификатор кодека : S_TEXT/UTF8
Идентификатор кодека/Информация : UTF-8 Plain Text
Продолжительность : 1 ч. 28 м.
Битрейт : 0 бит/сек
ElementCount : 9
Размер потока : 162 байт (0%)
Заголовок : Forced (ver.Ash61)
Язык : English
Default : Нет
Forced : Нет

Текст #5
Идентификатор : 9
Формат : UTF-8
Идентификатор кодека : S_TEXT/UTF8
Идентификатор кодека/Информация : UTF-8 Plain Text
Продолжительность : 1 ч. 29 м.
Битрейт : 19 бит/сек
ElementCount : 515
Размер потока : 12,6 Кбайт (0%)
Заголовок : Full
Язык : English
Default : Нет
Forced : Нет

Текст #6
Идентификатор : 10
Формат : UTF-8
Идентификатор кодека : S_TEXT/UTF8
Идентификатор кодека/Информация : UTF-8 Plain Text
Продолжительность : 1 ч. 42 м.
Битрейт : 25 бит/сек
ElementCount : 986
Размер потока : 19,2 Кбайт (0%)
Заголовок : SDH
Язык : English
Default : Нет
Forced : Нет

Меню
00:00:00.000 : :1
00:07:22.984 : :2
00:11:38.656 : :3
00:18:29.025 : :4
00:22:49.368 : :5
00:27:26.186 : :6
00:31:43.110 : :7
00:35:48.480 : :8
00:44:38.926 : :9
00:50:52.633 : :10
00:55:01.673 : :11
01:01:31.187 : :12
01:06:04.085 : :13
01:14:03.481 : :14
01:25:58.362 : :15
01:32:12.485 : :16

Просьба к переливающим на другие сайты, в оформлении указывайте пожалуйста авторство группы R.G. HD-Films



Скачать Охотник на монстров в 3D через торрент https://i.postimg.cc/MH6RyzYY/ljlw0hyr438mykzujwl3e5xmw.png Скачать, смотреть онлайн Охотник на монстров в 3D бесплантно в хорошем качестве Описание: Параллельно нашему миру существует иной — мир, где правят крайне опасные и наделенные невероятной силой монстры. Именно сюда ... 10 10 2
Торрент: Зарегистрирован [2022-06-12 08:56] · скачан: 12 раз
Статус: √ проверено
Размер: 6.29 GB
Как cкачать? Как скачать Охотник на монстров в 3D через торрент | UTorrent

% Раздел Тема Автор DL S | L
3D Фильмы [ 11.83 GB ] Охотник на монстров в 3Д / Monster Hunter 3D | | 1080p serega768 Скачать
1 | 0

28-11-2019 20:33  


Отключить вcю реклaмy на сайте, в т.ч. и в плеере онлайн просмотра!

    Дорогой пользователь! Огромная просьба, поблагодарите релизера, оцените раздачу и оставьте свои комментарий, если Вы скачали Охотник на монстров в 3D через торрент бесплатно!!
    Комментировать посты могут только пользователи прошедшие не сложную регистрацию
    Показать сообщения:    


    Охотник на монстров в 3D через торрент
    Скачать бесплатно Охотник на монстров в 3D
    Охотник на монстров в 3D скачать торрент
    Охотник на монстров в 3D смотреть онлайн
    Cкачать фильм Охотник на монстров в 3D бесплатно
    Охотник на монстров в 3D скачать торрент в хорошем качестве
    Охотник на монстров в 3D смотреть онлайн бесплатно в хорошем качестве
    Вы не можете начинать темы
    Вы не можете отвечать на сообщения
    Вы не можете редактировать свои сообщения
    Вы не можете удалять свои сообщения
    Вы не можете голосовать в опросах
    Вы не можете прикреплять файлы к сообщениям
    Вы можете скачивать файлы
    Охотник на монстров в 3D / Monster Hunter in 3D [2020 г., фэнтези, боевик, приключения, BDRip 1080p, Дубляж] Анаглиф от R.G. HD-Films смотреть онлайн, скачать торрент picoco.icu